Правила форума

  • В этом разделе создание новых тем Запрещено.
  • Для создания новых тем пользуйтесь Корневым разделом DVD и HD фильмы.
Начать новую темуОтветить на тему  [ Сообщений: 11 ] 
Торрент файл
Размер: 15.39 GB • Зарегистрирован: 1 год 8 месяцев • Статус: Проверено
Скачан: 738 раз • Желающих скачать: 0 • Поблагодарили: 122 раза
 Раздают: 2  |  0 KB/s  ]   Качают: 0  |  0 KB/s  ] 
Сообщения
 Добавлено: 2015-03-09 13:27
Модератор
Аватара пользователя
Стаж: 5 лет 8 месяцев
Сообщений: 6281
Спасибок: 17335
Лайков: 1633
Игра в имитацию
The Imitation Game

Изображение
Год выпуска: 2014
Страна: Великобритания, США
Жанр: Триллер, драма, военный, биография
Продолжительность: 01:54:14
Перевод: Профессиональный (полное дублирование) Лицензия
Режиссер: Мортен Тильдум
В ролях: Бенедикт Камбербэтч, Кира Найтли, Мэттью Гуд, Рори Киннер, Аллен Лич, Мэттью Бирд, Чарльз Дэнс, Марк Стронг, Джеймс Норткот, Том Гудман-Хилл
Описание: 1941 год. Английскому математику Алану Тьюрингу поручено расшифровать секретный код Третьего рейха — Enigma. Тьюринг действует по поручению Британской разведки в центре, специализирующемся на взломе шифров и кодов. Для выполнения сверхсекретного задания здесь собрана целая команда талантливых ученых, которым предстоит создать первый в мире компьютер.
Изображение Изображение
Награды:
Оскар, 2015 год
Победитель (1):
Лучший адаптированный сценарий
Номинации (7):
Лучший фильм
Лучшая мужская роль (Бенедикт Камбербэтч)
Лучшая женская роль второго плана (Кира Найтли)
Лучший режиссер (Мортен Тильдум)
Лучший монтаж
Лучший саундтрек
Лучшая работа художника-постановщика
Sample: http://sendfile.su/1093937
Качество: BDRip 1080p
Формат: MKV
Видео: MPEG-4 AVC, 15.9 Мбит/с, 1920x800
Аудио: Русский (AC3, 6 ch, 640 Кбит/с), (DTS, 6 ch, 1510 Кбит/с), английский (AC3, 6 ch, 640 Кбит/с)
MI
Общее
Уникальный идентификатор : 183282170070894859216526273099129957449 (0x89E2DCA97CEB01618187A2A1D5BC2C49)
Полное имя : C:\The.Imitation.Game.2014.1080p.BluRay.x264-EbP.mkv
Формат : Matroska
Версия формата : Version 4 / Version 2
Размер файла : 15,4 Гбайт
Продолжительность : 1 ч. 54 м.
Общий поток : 19,3 Мбит/сек
Дата кодирования : UTC 2015-03-09 04:59:24
Программа кодирования : mkvmerge v7.3.0 ('Nouages') 64bit built on Oct 22 2014 18:53:34
Библиотека кодирования : libebml v1.3.0 + libmatroska v1.4.1
_STATISTICS_WRITING_APP : mkvmerge v7.3.0 ('Nouages') 64bit built on Oct 22 2014 18:53:34
_STATISTICS_WRITING_DATE_UTC : 2015-03-09 04:59:24
_STATISTICS_TAGS : BPS DURATION NUMBER_OF_FRAMES NUMBER_OF_BYTES
DURATION : 01:54:13.805000000
NUMBER_OF_FRAMES : 164327
NUMBER_OF_BYTES : 13972034937

Видео
Идентификатор : 1
Формат : AVC
Формат/Информация : Advanced Video Codec
Профиль формата : High@L4.1
Параметр CABAC формата : Да
Параметр ReFrames формата : 5 кадров
Идентификатор кодека : V_MPEG4/ISO/AVC
Продолжительность : 1 ч. 54 м.
Битрейт : 15,9 Мбит/сек
Ширина : 1920 пикселей
Высота : 800 пикселей
Соотношение сторон : 2,40:1
Режим частоты кадров : Постоянный
Частота кадров : 23,976 кадра/сек
Цветовое пространство : YUV
Субдискретизация насыщенности : 4:2:0
Битовая глубина : 8 бит
Тип развёртки : Прогрессивная
Бит/(Пиксели*Кадры) : 0.433
Размер потока : 12,7 Гбайт (83%)
Заголовок : The.Imitation.Game.2014.1080p.BluRay.x264-EbP
Библиотека кодирования : x264 core 144 r2525 40bb568
Настройки программы : cabac=1 / ref=5 / deblock=1:-3:-3 / analyse=0x3:0x133 / me=umh / subme=11 / psy=1 / psy_rd=0.95:0.00 / mixed_ref=1 / me_range=32 / chroma_me=1 / trellis=2 / 8x8dct=1 / cqm=0 / deadzone=21,11 / fast_pskip=0 / chroma_qp_offset=-2 / threads=12 / lookahead_threads=2 / sliced_threads=0 / nr=0 / decimate=0 / interlaced=0 / bluray_compat=0 / constrained_intra=0 / bframes=9 / b_pyramid=2 / b_adapt=2 / b_bias=0 / direct=3 / weightb=1 / open_gop=0 / weightp=2 / keyint=240 / keyint_min=23 / scenecut=40 / intra_refresh=0 / rc_lookahead=80 / rc=crf / mbtree=0 / crf=15.8 / qcomp=0.60 / qpmin=0 / qpmax=69 / qpstep=4 / vbv_maxrate=62500 / vbv_bufsize=78125 / crf_max=0.0 / nal_hrd=none / filler=0 / ip_ratio=1.40 / pb_ratio=1.30 / aq=2:0.70
Язык : English
Default : Да
Forced : Нет

Аудио #1
Идентификатор : 2
Формат : DTS
Формат/Информация : Digital Theater Systems
Режим : 16
Параметр Endianness формата : Big
Идентификатор кодека : A_DTS
Продолжительность : 1 ч. 54 м.
Вид битрейта : Постоянный
Битрейт : 1509 Кбит/сек
Каналы : 6 каналов
Расположение каналов : Front: L C R, Side: L R, LFE
Частота : 48,0 КГц
Битовая глубина : 16 бит
Метод сжатия : С потерями
Размер потока : 1,20 Гбайт (8%)
Язык : Russian
Default : Нет
Forced : Нет

Аудио #2
Идентификатор : 3
Формат : AC-3
Формат/Информация : Audio Coding 3
Расширение режима : CM (complete main)
Параметр Endianness формата : Big
Идентификатор кодека : A_AC3
Продолжительность : 1 ч. 54 м.
Вид битрейта : Постоянный
Битрейт : 640 Кбит/сек
Каналы : 6 каналов
Расположение каналов : Front: L C R, Side: L R, LFE
Частота : 48,0 КГц
Битовая глубина : 16 бит
Метод сжатия : С потерями
Размер потока : 523 Мбайт (3%)
Язык : Russian
Default : Нет
Forced : Нет

Аудио #3
Идентификатор : 4
Формат : AC-3
Формат/Информация : Audio Coding 3
Расширение режима : CM (complete main)
Параметр Endianness формата : Big
Идентификатор кодека : A_AC3
Продолжительность : 1 ч. 54 м.
Вид битрейта : Постоянный
Битрейт : 640 Кбит/сек
Каналы : 6 каналов
Расположение каналов : Front: L C R, Side: L R, LFE
Частота : 48,0 КГц
Битовая глубина : 16 бит
Метод сжатия : С потерями
Размер потока : 523 Мбайт (3%)
Язык : English
Default : Нет
Forced : Нет

Аудио #4
Идентификатор : 5
Формат : AC-3
Формат/Информация : Audio Coding 3
Расширение режима : CM (complete main)
Параметр Endianness формата : Big
Идентификатор кодека : A_AC3
Продолжительность : 1 ч. 54 м.
Вид битрейта : Постоянный
Битрейт : 192 Кбит/сек
Каналы : 2 канала
Расположение каналов : Front: L R
Частота : 48,0 КГц
Битовая глубина : 16 бит
Метод сжатия : С потерями
Размер потока : 157 Мбайт (1%)
Заголовок : Description
Язык : English
Default : Нет
Forced : Нет

Текст #1
Идентификатор : 6
Формат : UTF-8
Идентификатор кодека : S_TEXT/UTF8
Идентификатор кодека/Информация : UTF-8 Plain Text
Заголовок : Matveev
Язык : Russian
Default : Нет
Forced : Нет

Текст #2
Идентификатор : 7
Формат : UTF-8
Идентификатор кодека : S_TEXT/UTF8
Идентификатор кодека/Информация : UTF-8 Plain Text
Заголовок : SDH
Язык : English
Default : Нет
Forced : Нет

Текст #3
Идентификатор : 8
Формат : UTF-8
Идентификатор кодека : S_TEXT/UTF8
Идентификатор кодека/Информация : UTF-8 Plain Text
Язык : English
Default : Нет
Forced : Нет

Меню
00:00:00.000 : en:00:00:00.000
00:07:58.895 : en:00:07:58.895
00:20:20.010 : en:00:20:20.010
00:28:20.032 : en:00:28:20.032
00:36:59.050 : en:00:36:59.050
00:46:37.128 : en:00:46:37.128
00:57:27.527 : en:00:57:27.527
01:09:35.088 : en:01:09:35.088
01:23:46.688 : en:01:23:46.688
01:29:29.239 : en:01:29:29.239
01:35:09.913 : en:01:35:09.913
01:42:10.499 : en:01:42:10.499
Свернуть
"Скриншоты"
ИзображениеИзображениеИзображениеИзображение
Свернуть

_________________
Изображение Изображение Изображение
Не в сети
Профиль  
 Добавлено: 2015-03-10 01:10 (спустя 11 часов)
Стаж: 7 лет 5 месяцев
Сообщений: 103
Лайков: 4
да ваще , ЛУчший фильм года, ага, а то, что они историю обосрали это конечно так, гомосексуалисты спасли мир, и СССР выиграл только благодаря гомикам, гомики и снимали в свою поддержку, отвратительно, так истории еще никто не срал ))) супер просто.
 alex s нравится это.
Не в сети
Профиль  
 Добавлено: 2015-03-10 16:30 (спустя 15 часов)
Стаж: 8 лет 7 месяцев
Сообщений: 46
Фильм очень хорош
Не в сети
Профиль  
 Добавлено: 2015-03-11 10:50 (спустя 18 часов)
Стаж: 7 лет 6 месяцев
Возраст: 32
Сообщений: 71
Лайков: 1

viktor gregorian:

да ваще , ЛУчший фильм года, ага, а то, что они историю обосрали это конечно так, гомосексуалисты спасли мир, и СССР выиграл только благодаря гомикам, гомики и снимали в свою поддержку, отвратительно, так истории еще никто не срал ))) супер просто.

да пусть всё обосрут, кому какое дело... главное фильм хороший сняли :hi_hi_hi:
Не в сети
Профиль  
 Добавлено: 2015-03-14 13:09 (спустя 3 дня)
Стаж: 8 лет 1 месяц
Сообщений: 215
Лайков: 24
Судя по комментам, я на распутье-смотреть или не смотреть?

Добавлено спустя 1 минута:
Вообще то скачаю, пусть будет
Не в сети
Профиль  
 Добавлено: 2015-03-14 14:20 (спустя 1 час 10 минут)
Стаж: 7 лет 9 месяцев
Сообщений: 23
Спасибок: 99
Сложно советовать. Начни, а потом как пойдёт...
Не в сети
Профиль  
 Добавлено: 2015-03-15 13:18 (спустя 22 часа)
Top-seeder
Аватара пользователя
Стаж: 8 лет 9 месяцев
Сообщений: 164
Спасибок: 310
Лайков: 8
Фильм шикарный. Про гениев вообще фильмы хороши, Пианист, Игры разума.
Cкрытый текст
Но конечно в самом конце когда всё сводится к гомосексуальности, хим. кастрации и т.д. это не красиво. Я думаю надо было закончить фильм восхвалением ума и заслуг Тюринга. А там это так, как второстепенное.
Свернуть
Не в сети
Профиль  
 Добавлено: 2015-03-19 23:51 (спустя 4 дня)
Стаж: 8 лет 1 месяц
Сообщений: 215
Лайков: 24
Взломал шифр. В то время расшифровывали код, вроде.
Не в сети
Профиль  
 Добавлено: 2015-06-17 11:15 (спустя 2 месяца 28 дней)
Аватара пользователя
Стаж: 7 лет 4 месяца
Сообщений: 11
... гомики и снимали в свою поддержку, отвратительно, так истории еще никто не срал )))
А сейчас это самая ходовая тема за бугром. Они там скоро зоофилию узаконят. Выродки.
Не в сети
Профиль  
 Добавлено: 2015-06-28 20:58 (спустя 11 дней)
Аватара пользователя
Стаж: 8 лет 11 месяцев
Сообщений: 517
Спасибок: 39
Лайков: 49

badzura:

... гомики и снимали в свою поддержку, отвратительно, так истории еще никто не срал )))
А сейчас это самая ходовая тема за бугром. Они там скоро зоофилию узаконят. Выродки.

Уж кто бы говорил про зоофилию с таким аватаром. Нравятся китайские медвежатки? :-D
Не в сети
Профиль  
 Добавлено: 2015-07-02 23:50 (спустя 4 дня)
Аватара пользователя
Стаж: 6 лет 9 месяцев
Возраст: 30
Сообщений: 90
Лайков: 6
Хороший фильм,и актер играет как понравился.
Не в сети
Профиль  
Начать новую темуОтветить на тему  [ Сообщений: 11 ] 
Вы не можете начинать темы
Вы не можете отвечать на сообщения
Вы не можете редактировать свои сообщения
Вы не можете удалять свои сообщения