Правила форума

  • В этом разделе создание новых тем Запрещено.
  • Для создания новых тем пользуйтесь Корневым разделом DVD и HD фильмы.
Начать новую темуОтветить на тему  [ 1 сообщение ] 
Торрент файл
Размер: 8.21 GB • Зарегистрирован: 5 лет • Статус: Проверено
Скачан: 44 раза • Желающих скачать: 0 • Поблагодарили: 9 раз
 Раздают: 0  |  0 KB/s  ]   Качают: 0  |  0 KB/s  ] 
 Полного источника не было 3 года 2 месяца 
Сообщения
 Добавлено: 2011-11-30 12:38
Top-releaser
Аватара пользователя
Стаж: 7 лет 3 месяца
Возраст: 25
Сообщений: 1036
Спасибок: 2694
Лайков: 9
Игры страсти / Passion Play

«Love Is Stronger Than Death»

Изображение



Год выхода: 2010
Страна: США

Жанр: триллер, драма
Продолжительность: 01:34:20
Перевод: Профессиональное (многоголосое) [лицензия]

Режиссер: Митч Глейзер
Сценарий: Митч Глейзер
Продюсер: Дэн Дубицки, Меган Эллисон, Андреа Чунг, ...
Оператор: Кристофер Дойл
Композитор: Дикон Хинчклифф

В ролях: Микки Рурк, Меган Фокс, Билл Мюррей, Келли Линч, Джерри Сойерс, Армин Амири, Тина Борек, Чарли Б. Браун, Крис Браунинг, Лайзл Карстенс

Описание: Лос-Анджелес 50-х годов. Лента повествует о нелегкой судьбе музыканта-неудачника, зарабатывающего себе кусок хлеба игрой на трубе, и чистейшего, невинного Ангела. Однажды музыкант спасает Ангела от мерзкого бандита, и его жизнь меняется.

Изображение

Pаздача группы:Изображение

Качество: BDRip 1080p
Формат: Mkv

Видео: MPEG4 Video (H264) 1920x804 23.98fps 10.5 Mbps
Аудио 1: Dolby AC3 48000Hz 6ch 448 Kbps
Аудио 2: Dts 48000Hz 6ch 1 510 Kbps
Subtitle: Utf-8

Изображение

MediaInfo
General
Unique ID : 255073021802665330493088657499052462309 (0xBFE546EE07007DD18766D1A8308650E5)
Complete name : H:\Download\Igry.strastiDVD_RG(1080)by_fotp.mkv
Format : Matroska
Format version : Version 2
File size : 8.21 GiB
Duration : 1h 34mn
Overall bit rate : 12.5 Mbps
Movie name : UNIONGANG.TV -TVB-
Encoded date : UTC 2011-11-29 12:39:08
Writing application : mkvmerge v5.0.1 ('Es ist Sommer') built on Oct 9 2011 11:55:43
Writing library : libebml v1.2.2 + libmatroska v1.3.0

Video
ID : 1
Format : AVC
Format/Info : Advanced Video Codec
Format profile : High@L4.1
Format settings, CABAC : Yes
Format settings, ReFrames : 5 frames
Codec ID : V_MPEG4/ISO/AVC
Duration : 1h 34mn
Bit rate : 10.5 Mbps
Width : 1 920 pixels
Height : 804 pixels
Display aspect ratio : 2.40:1
Frame rate : 23.976 fps
Color space : YUV
Chroma subsampling : 4:2:0
Bit depth : 8 bits
Scan type : Progressive
Bits/(Pixel*Frame) : 0.284
Stream size : 6.76 GiB (82%)
Title : CHD
Writing library : x264 core 114 r1924 08d04a4
Encoding settings : cabac=1 / ref=5 / deblock=1:-3:-3 / analyse=0x3:0x113 / me=umh / subme=10 / psy=1 / psy_rd=1.05:0.10 / mixed_ref=1 / me_range=48 / chroma_me=1 / trellis=2 / 8x8dct=1 / cqm=2 / deadzone=21,11 / fast_pskip=0 / chroma_qp_offset=-2 / threads=12 / sliced_threads=0 / nr=0 / decimate=1 / interlaced=0 / constrained_intra=0 / bframes=6 / b_pyramid=2 / b_adapt=2 / b_bias=0 / direct=3 / weightb=1 / open_gop=0 / weightp=2 / keyint=250 / keyint_min=23 / scenecut=40 / intra_refresh=0 / rc_lookahead=50 / rc=2pass / mbtree=1 / bitrate=10507 / ratetol=1.0 / qcomp=0.70 / qpmin=1 / qpmax=63 / qpstep=4 / cplxblur=20.0 / qblur=0.5 / vbv_maxrate=40000 / vbv_bufsize=40000 / nal_hrd=none / ip_ratio=1.40 / aq=2:0.70
Language : English

Audio #1
ID : 2
Format : AC-3
Format/Info : Audio Coding 3
Mode extension : CM (complete main)
Codec ID : A_AC3
Duration : 1h 34mn
Bit rate mode : Constant
Bit rate : 448 Kbps
Channel(s) : 6 channels
Channel positions : Front: L C R, Side: L R, LFE
Sampling rate : 48.0 KHz
Bit depth : 16 bits
Compression mode : Lossy
Delay relative to video : 23s 0ms
Stream size : 302 MiB (4%)
Title : MVO R5
Language : Russian

Audio #2
ID : 3
Format : DTS
Format/Info : Digital Theater Systems
Codec ID : A_DTS
Duration : 1h 34mn
Bit rate mode : Constant
Bit rate : 1 510 Kbps
Channel(s) : 6 channels
Channel positions : Front: L C R, Side: L R, LFE
Sampling rate : 48.0 KHz
Bit depth : 16 bits
Compression mode : Lossy
Stream size : 1 019 MiB (12%)
Language : English

Text #1
ID : 4
Format : UTF-8
Codec ID : S_TEXT/UTF8
Codec ID/Info : UTF-8 Plain Text
Language : Russian

Text #2
ID : 5
Format : UTF-8
Codec ID : S_TEXT/UTF8
Codec ID/Info : UTF-8 Plain Text
Language : English

Menu
00:00:00.000 : en:00:00:00.000
00:06:00.819 : en:00:06:00.819
00:15:25.258 : en:00:15:25.258
00:21:28.287 : en:00:21:28.287
00:27:15.133 : en:00:27:15.133
00:36:59.509 : en:00:36:59.509
00:49:53.157 : en:00:49:53.157
00:54:43.238 : en:00:54:43.238
01:00:06.561 : en:01:00:06.561
01:08:49.334 : en:01:08:49.334
01:18:57.650 : en:01:18:57.650
01:27:02.342 : en:01:27:02.342


Свернуть
Скриншоты
Изображение
Изображение
Изображение
Изображение
Изображение
Свернуть
Не в сети
Профиль  
Начать новую темуОтветить на тему  [ 1 сообщение ] 
Вы не можете начинать темы
Вы не можете отвечать на сообщения
Вы не можете редактировать свои сообщения
Вы не можете удалять свои сообщения