Правила форума

  • В этом разделе создание новых тем Запрещено.
  • Для создания новых тем пользуйтесь Корневым разделом DVD и HD фильмы.
Начать новую темуОтветить на тему  [ Сообщений: 4 ] 
Торрент файл
Размер: 12.93 GB • Зарегистрирован: 3 года 2 месяца • Статус: Проверено
Скачан: 746 раз • Желающих скачать: 0 • Поблагодарили: 224 раза
 Раздают: 3  |  0 KB/s  ]   Качают: 0  |  0 KB/s  ] 
Сообщения
 Добавлено: 2013-09-14 01:25
Аватара пользователя
Стаж: 9 лет 1 месяц
Сообщений: 7977
Спасибок: 122205
Лайков: 1191
Иллюзия обмана / Now You See Me

«Чем вы ближе, тем меньше вы видите.»

Изображение


Год выпуска: 2013
Страна: Изображение Франция Изображение США
Жанр: триллер, криминал, детектив
Продолжительность: 01:55:21
Субтитры: Английские
Перевод: Профессиональный (полное дублирование) [Лицензия]


Режиссер: Луи Летерье
Сценарий: Боаз Якин, Эд Соломон
Продюсер: Бобби Коэн, Алекс Куртцман, Роберто Орси
Оператор: Митчелл Амундсен, Ларри Фонг
Композитор: Брайан Тайлер

В ролях: Джесси Айзенберг, Дэйв Франко, Морган Фримен, Марк Руффало, Айла Фишер, Мелани Лоран, Вуди Харрельсон, Майкл Кейн, Майкл Келли, Коммон, Дэвид Уоршофски, Джессика Линдси, Каитриона Бэлфи

Описание: Команда лучших иллюзионистов мира проворачивает дерзкие ограбления прямо во время своих шоу, играя в кошки-мышки с агентами ФБР.

Изображение Изображение

Раздача группы: Изображение

Качество: BDRip (1080p)
Формат: Matroska
Видео: MPEG-4 AVC, 12.1 Мбит/с, 1920x800
Аудио №1: Русский (DTS, 48,0 КГц, 6 ch, 1510 Кбит/c)
Аудио №2: Русский (AC3, 48,0 КГц, 6 ch, 448 Кбит/c)
Аудио №3: Английский (DTS, 48,0 КГц, 6 ch, 1510 Кбит/c)
Аудио №4: Английский (AC3, 48,0 КГц, 2 ch, 192 Кбит/c) Комментарии

MediaInfo
Общее
Уникальный идентификатор : 243598098185486482743631619126491418077 (0xB7434983EA5F49C49B2AD8938E590DDD)
Полное имя : F:\Now.You.See.Me.2013.Theatrical.Cut.1080p.BluRay.Rus.3xEng.R.G.Daredevil.mkv
Формат : Matroska
Версия формата : Version 2
Размер файла : 12,9 Гбайт
Продолжительность : 1 ч. 55 м.
Общий поток : 16,0 Мбит/сек
Название фильма : Now You See Me (2013) - Release for HDCLUB
Дата кодирования : UTC 2013-09-13 19:06:08
Программа кодирования : mkvmerge v6.3.0 ('You can't stop me!') built on Jun 28 2013 20:09:41
Библиотека кодирования : libebml v1.3.0 + libmatroska v1.4.0

Видео
Идентификатор : 1
Формат : AVC
Формат/Информация : Advanced Video Codec
Профиль формата : High@L4.1
Параметр CABAC формата : Да
Параметр ReFrames формата : 4 кадра
Идентификатор кодека : V_MPEG4/ISO/AVC
Продолжительность : 1 ч. 55 м.
Битрейт : 12,1 Мбит/сек
Ширина : 1920 пикселей
Высота : 800 пикселей
Соотношение сторон : 2,40:1
Режим частоты кадров : Постоянный
Частота кадров : 23,976 кадра/сек
Цветовое пространство : YUV
Субдискретизация насыщенности : 4:2:0
Битовая глубина : 8 бит
Тип развёртки : Прогрессивная
Бит/(Пиксели*Кадры) : 0.329
Размер потока : 9,52 Гбайт (74%)
Библиотека кодирования : x264 core 133 r2334 a3ac64b
Настройки программы : cabac=1 / ref=5 / deblock=1:-3:-3 / analyse=0x3:0x133 / me=umh / subme=11 / psy=1 / psy_rd=1.00:0.15 / mixed_ref=1 / me_range=32 / chroma_me=1 / trellis=2 / 8x8dct=1 / cqm=0 / deadzone=21,11 / fast_pskip=0 / chroma_qp_offset=-3 / threads=12 / lookahead_threads=2 / sliced_threads=0 / nr=0 / decimate=1 / interlaced=0 / bluray_compat=0 / constrained_intra=0 / bframes=7 / b_pyramid=1 / b_adapt=2 / b_bias=0 / direct=3 / weightb=1 / open_gop=0 / weightp=2 / keyint=240 / keyint_min=23 / scenecut=40 / intra_refresh=0 / rc_lookahead=40 / rc=2pass / mbtree=1 / bitrate=12124 / ratetol=1.0 / qcomp=0.60 / qpmin=0 / qpmax=69 / qpstep=4 / cplxblur=20.0 / qblur=0.5 / vbv_maxrate=62500 / vbv_bufsize=78125 / nal_hrd=none / ip_ratio=1.40 / aq=1:1.00
Язык : English
Default : Да
Forced : Нет

Аудио #1
Идентификатор : 2
Формат : DTS
Формат/Информация : Digital Theater Systems
Режим : 16
Параметр Endianness формата : Big
Идентификатор кодека : A_DTS
Продолжительность : 1 ч. 55 м.
Вид битрейта : Постоянный
Битрейт : 1510 Кбит/сек
Каналы : 6 каналов
Расположение каналов : Front: L C R, Side: L R, LFE
Частота : 48,0 КГц
Битовая глубина : 16 бит
Метод сжатия : С потерями
Размер потока : 1,22 Гбайт (9%)
Язык : Russian
Default : Да
Forced : Нет

Аудио #2
Идентификатор : 3
Формат : AC-3
Формат/Информация : Audio Coding 3
Расширение режима : CM (complete main)
Параметр Endianness формата : Big
Идентификатор кодека : A_AC3
Продолжительность : 1 ч. 55 м.
Вид битрейта : Постоянный
Битрейт : 448 Кбит/сек
Каналы : 6 каналов
Расположение каналов : Front: L C R, Side: L R, LFE
Частота : 48,0 КГц
Битовая глубина : 16 бит
Метод сжатия : С потерями
Размер потока : 370 Мбайт (3%)
Язык : Russian
Default : Нет
Forced : Нет

Аудио #3
Идентификатор : 4
Формат : DTS
Формат/Информация : Digital Theater Systems
Режим : 16
Параметр Endianness формата : Big
Идентификатор кодека : A_DTS
Продолжительность : 1 ч. 55 м.
Вид битрейта : Постоянный
Битрейт : 1509 Кбит/сек
Каналы : 6 каналов
Расположение каналов : Front: L C R, Side: L R, LFE
Частота : 48,0 КГц
Битовая глубина : 24 бит
Метод сжатия : С потерями
Размер потока : 1,22 Гбайт (9%)
Язык : English
Default : Нет
Forced : Нет

Аудио #4
Идентификатор : 5
Формат : AC-3
Формат/Информация : Audio Coding 3
Профиль формата : Dolby Digital
Расширение режима : CM (complete main)
Параметр Endianness формата : Big
Идентификатор кодека : A_AC3
Продолжительность : 1 ч. 55 м.
Вид битрейта : Постоянный
Битрейт : 224 Кбит/сек
Каналы : 2 канала
Расположение каналов : Front: L R
Частота : 48,0 КГц
Битовая глубина : 16 бит
Метод сжатия : С потерями
Размер потока : 185 Мбайт (1%)
Заголовок : AC3 2.0 @ 192 kbps - Descriptive
Язык : English
Default : Нет
Forced : Нет

Аудио #5
Идентификатор : 6
Формат : AC-3
Формат/Информация : Audio Coding 3
Профиль формата : Dolby Digital
Расширение режима : CM (complete main)
Параметр Endianness формата : Big
Идентификатор кодека : A_AC3
Продолжительность : 1 ч. 55 м.
Вид битрейта : Постоянный
Битрейт : 224 Кбит/сек
Каналы : 2 канала
Расположение каналов : Front: L R
Частота : 48,0 КГц
Битовая глубина : 16 бит
Метод сжатия : С потерями
Размер потока : 185 Мбайт (1%)
Заголовок : AC3 2.0 @ 192 kbps - Commentary
Язык : English
Default : Нет
Forced : Нет

Текст #1
Идентификатор : 7
Формат : UTF-8
Идентификатор кодека : S_TEXT/UTF8
Идентификатор кодека/Информация : UTF-8 Plain Text
Язык : English
Default : Нет
Forced : Нет

Текст #2
Идентификатор : 8
Формат : UTF-8
Идентификатор кодека : S_TEXT/UTF8
Идентификатор кодека/Информация : UTF-8 Plain Text
Заголовок : SDH
Язык : English
Default : Нет
Forced : Нет

Меню
00:00:00.000 : en:00:00:00.000
00:07:41.795 : en:00:07:41.795
00:13:34.272 : en:00:13:34.272
00:20:17.466 : en:00:20:17.466
00:30:13.145 : en:00:30:13.145
00:37:35.169 : en:00:37:35.169
00:44:45.725 : en:00:44:45.725
00:51:15.906 : en:00:51:15.906
00:58:56.908 : en:00:58:56.908
01:04:31.909 : en:01:04:31.909
01:13:21.939 : en:01:13:21.939
01:20:44.131 : en:01:20:44.131
01:27:06.054 : en:01:27:06.054
01:35:46.449 : en:01:35:46.449
01:41:00.179 : en:01:41:00.179
01:45:47.507 : en:01:45:47.507
Свернуть
Знаете ли вы, что...
Колода карт, используемая в фильме, реально существует, и ее можно купить в одном из американских интернет-магазинов фокусов и карт (theory11). Колода называется Monarchs.

Во время съемок фильма Майкл Кейн оказался запертым в раздевалке на целую ночь. Кейн заснул после съемок и не услышал, когда режиссер объявил об окончании рабочего дня. Все думали, что Кейн уже ушел, и съемочную площадку закрыли. Кейн проснулся в кромешной тьме и смог покинуть помещение только утром, когда кто-то услышал его крики о помощи.

Многие фокусы актеры выполняли сами. Создатели стремились минимизировать операторские трюки при съемках сценических номеров.

Фильм снимался в Нью-Йорке, Лас-Вегасе, Париже и Новом Орлеане, причем столица Луизианы попала в кадр в период праздника Марди Гра.

Чтобы освоить технику гипноза и внушения и правдоподобно воплотить менталиста, Вуди Харрельсон на протяжении нескольких недель занимался с настоящим психологом-манипулятором.

Джесси Айзенберг был первым актером, подписавшимся на проект.

Готовясь к роли, Айла Фишер смотрела документальные фильмы о фокусниках. В частности, она изучила работу Гарри Гудини.
Джейк Джилленхол рассматривался на роль в фильме, но отказался. В итоге роль отошла Марку Руффало.

Филип Сеймур Хоффман, Джим Керри, Хью Грант, Саша Барон Коэн и Колин Фёрт рассматривались на главную роль в фильме, прежде чем было принято решение взять на нее более молодого актера.

Оливии Уайлд предлагали роль в этом фильме.

Аманда Сайфред рассматривалась на роль в фильме, но в итоге образ достался Айле Фишер.

Андреа Райзборо рассматривалась на роль Хенли.

В первоначальном варианте сценария среди «Четырех всадников» не было ни одной женщины.

В самом начале фильма, до того как герой Джесси Айзенберга показывает фокус с семеркой бубен, он крутит в руках карты. Это направление в магии называется cardistry. Человек должен наиболее красиво и сложно крутить карты в руках. Естественно, Джесси не сам делал этот сложный трюк. Дублерами для его рук выступили братья-близнецы Дэн и Дэйв Баки (Dan and Dave Buck). Также братья выступали в качестве консультантов для других актеров.

Когда француз находится в хранилище с деньгами, а его просят положить билет и карту между деньгами, он кладет правой рукой. Когда кадр переключается на камеру со шлема, то он кладет левой рукой.

Во время первого фокуса, когда француза ведут на сцену, параллельно происходит диалог с Артуром Тесслером. При этом за спиной фокусников видны белые штаны француза, который стоит в центре круга. Однако в следующей сцене он лишь поднимается в круг, а МакКини встречает его.

На шлеме телепортации отсутствует камера, которая транслирует лицо француза во время фокуса. Таковая должна была бы находиться прямо перед его лицом, но ничего подобного нет.

Свернуть
Скриншоты
Изображение
Изображение
Изображение
Изображение
Свернуть
 sanyok445 нравится это.
Не в сети
Профиль  
 Добавлено: 2013-09-15 09:57 (спустя 1 день 8 часов)
Аватара пользователя
Стаж: 8 лет 7 месяцев
Возраст: 55
Сообщений: 264
Лайков: 19
Не впечатлил, выключил на середине, не дорос я до таких шедевров.
Не в сети
Профиль  
 Добавлено: 2013-09-18 23:09 (спустя 3 дня)
Аватара пользователя
Стаж: 8 лет
Возраст: 39
Сообщений: 346
Спасибок: 870
классный фильм, смотрел в кинотеатре получил море удовольствия
Не в сети
Профиль  
 Добавлено: 2015-01-31 21:52 (спустя 1 год 4 месяца)
Стаж: 1 год 11 месяцев
Сообщений: 10
Добавьте скорости плиз
Не в сети
Профиль  
Начать новую темуОтветить на тему  [ Сообщений: 4 ] 
Вы не можете начинать темы
Вы не можете отвечать на сообщения
Вы не можете редактировать свои сообщения
Вы не можете удалять свои сообщения