Правила форума

  • В этом разделе создание новых тем Запрещено.
  • Для создания новых тем пользуйтесь Корневым разделом DVD и HD фильмы.
Начать новую темуОтветить на тему  [ Сообщений: 4 ] 
Торрент файл
Размер: 8.21 GB • Зарегистрирован: 4 года 10 месяцев • Статус: Проверено
Скачан: 71 раз • Желающих скачать: 0 • Поблагодарили: 19 раз
 Раздают: 1  |  0 KB/s  ]   Качают: 0  |  0 KB/s  ] 
Сообщения
 Добавлено: 2012-01-17 14:43
Модератор релиз-группы
Аватара пользователя
Стаж: 9 лет 1 месяц
Возраст: 97
Сообщений: 11659
Спасибок: 6532
Лайков: 269
Иллюзия полета / Flightplan

Изображение



Год выпуска: 2005
Страна: USA
Жанр:Драма / Триллер / Детектив
Продолжительность: 01:38:02
Перевод: Профессиональный (полное дублирование)

Режиссер: Роберт Швентке / Robert Schwentke

В ролях: Джоди Фостер / Jodie Foster, Питер Сарсгаард / Peter Sarsgaard, Шон Бин / Sean Bean, Кейт Бихэн / Kate Beahan, Эрика Кристенсен / Erika Christensen, Марлен Лостон / Marlene Lawston, Джудит Скотт / Judith Scott, Виктория Спарк / Victoria Spark, Джон Бенджамин Хикки / John Benjamin Hickey, Мэттью Бомер / Matthew Bomer, Гэвин Грэйзер / Gavin Grazer, Кристофер Гартин / Christopher Gartin, Стефани Фэрэси / Stephanie Faracy, Купер Торнтон / Cooper Thornton, Аманда Брукс / Amanda Brooks, Майкл Ирби / Michael Irby

Описание: Во время авиарейса Берлин-Нью-Йорк, выполняемого сверхсовременным «Боингом-747», у Кайл Пратт неожиданно бесследно пропадает 6-летняя дочь Джулия. Переживая эмоциональный стресс после безвременной кончины мужа, Кайл отчаянно пытается доказать свою вменяемость не верящим ей членам экипажа и пассажирам. Однако ситуация выглядит настолько абсурдной и фантастичной, что она уже сама начинает сомневаться в адекватности своего восприятия реальности.
К тому же факты свидетельствуют о том, что Джулии вообще не было на борту самолета. Понимая, что разгадывать эту тайну и спасать свою дочь ей придется в одиночку, Кайл решает целиком и полностью положиться на свой ум и смекалку.
Изображение
Качество: Blu-RayRip
Формат: MKV
Видео кодек: H.264
Аудио кодек: AC3
Видео: 1920x816 (2.35:1); AVC MPEG-4; ~ 11.0 Мбит/сек; 23,976 fps
Аудио#1: Russian AC3, 384 kbps, 48.0 kHz, 6ch (Дублированный)
Аудио#2: English AC3, 640 kbps, 48.0 kHz, 6ch
скриншоты
Изображение

Изображение

Изображение
Свернуть
Mi
Format : Matroska
Format version : Version 1
File size : 8.21 GiB
Duration : 1h 38mn
Overall bit rate : 12.0 Mbps
Encoded date : UTC 2008-05-02 19:24:45
Writing application : mkvmerge v2.0.0 ('After The Rain Has Fallen') built on Jan 13 2007 19:58:56
Writing library : libebml v0.7.7 + libmatroska v0.8.0

Video
ID : 1
Format : AVC
Format/Info : Advanced Video Codec
Format profile : High@L5.1
Format settings, CABAC : Yes
Format settings, ReFrames : 5 frames
Codec ID : V_MPEG4/ISO/AVC
Duration : 1h 38mn
Bit rate : 11.0 Mbps
Width : 1 920 pixels
Height : 816 pixels
Display aspect ratio : 2.35:1
Frame rate : 23.976 fps
Color space : YUV
Chroma subsampling : 4:2:0
Bit depth : 8 bits
Scan type : Progressive
Bits/(Pixel*Frame) : 0.292
Stream size : 7.34 GiB (89%)
Title : Video
Writing library : x264 core 59 r807 08b5132
Encoding settings : cabac=1 / ref=5 / deblock=1:0:0 / analyse=0x3:0x133 / me=umh / subme=7 / brdo=1 / mixed_ref=1 / me_range=16 / chroma_me=1 / trellis=1 / 8x8dct=1 / cqm=0 / deadzone=21,11 / chroma_qp_offset=0 / threads=6 / nr=0 / decimate=1 / mbaff=0 / bframes=3 / b_pyramid=1 / b_adapt=1 / b_bias=0 / direct=1 / wpredb=1 / bime=1 / keyint=250 / keyint_min=25 / scenecut=40(pre) / rc=2pass / bitrate=10961 / ratetol=1.0 / rceq='blurCplx^(1-qComp)' / qcomp=1.00 / qpmin=10 / qpmax=51 / qpstep=4 / cplxblur=20.0 / qblur=0.5 / ip_ratio=1.40 / pb_ratio=1.30 / aq=2:1.00
Default : Yes
Forced : No

Audio #1
ID : 2
Format : AC-3
Format/Info : Audio Coding 3
Mode extension : CM (complete main)
Codec ID : A_AC3
Duration : 1h 38mn
Bit rate mode : Constant
Bit rate : 640 Kbps
Channel(s) : 6 channels
Channel positions : Front: L C R, Side: L R, LFE
Sampling rate : 48.0 KHz
Bit depth : 16 bits
Compression mode : Lossy
Stream size : 449 MiB (5%)
Title : English AC3 5.1 @ 640kbps
Language : English
Default : No
Forced : No

Audio #2
ID : 3
Format : AC-3
Format/Info : Audio Coding 3
Mode extension : CM (complete main)
Codec ID : A_AC3
Duration : 1h 38mn
Bit rate mode : Constant
Bit rate : 384 Kbps
Channel(s) : 6 channels
Channel positions : Front: L C R, Side: L R, LFE
Sampling rate : 48.0 KHz
Bit depth : 16 bits
Compression mode : Lossy
Stream size : 269 MiB (3%)
Title : Russian AC3 5.1 @ 384kbps
Language : Russian
Default : Yes
Forced : No

Свернуть
_________________
Изображение
Не в сети
Профиль  
 Добавлено: 2015-01-13 19:56 (спустя 2 года 11 месяцев)
Стаж: 5 лет 11 месяцев
Сообщений: 19
скорости плиз
Не в сети
Профиль  
 Добавлено: 2015-01-13 21:55 (спустя 1 час 58 минут)
Аватара пользователя
Стаж: 8 лет 9 месяцев
Сообщений: 1170
Спасибок: 1294
Лайков: 7
как я его пропустил?
Не в сети
Профиль  
 Добавлено: 2015-01-18 03:32 (спустя 4 дня)
Аватара пользователя
Стаж: 6 лет 9 месяцев
Возраст: 30
Сообщений: 89
Лайков: 6
Фильм класс,любителям триллеров смотреть однозначно.Начало только муторное ,его перетерпеть надо,но так обычно бывает в хороших триллерах.
Не в сети
Профиль  
Начать новую темуОтветить на тему  [ Сообщений: 4 ] 
Вы не можете начинать темы
Вы не можете отвечать на сообщения
Вы не можете редактировать свои сообщения
Вы не можете удалять свои сообщения