Правила форума

  • В этом разделе создание новых тем Запрещено.
  • Для создания новых тем пользуйтесь Корневым разделом DVD и HD фильмы.
Начать новую темуОтветить на тему  [ Сообщений: 3 ] 
Торрент файл
Размер: 4.36 GB • Зарегистрирован: 5 лет 6 месяцев • Статус: Проверено
Скачан: 46 раз • Желающих скачать: 0 • Поблагодарили: 12 раз
 Раздают: 0  |  0 KB/s  ]   Качают: 0  |  0 KB/s  ] 
 Полного источника не было 7 месяцев 
Сообщения
 Добавлено: 2011-05-08 16:28
Top-releaser
Аватара пользователя
Стаж: 6 лет 7 месяцев
Сообщений: 2078
Спасибок: 3230
Лайков: 9
Индиана Джонс: В поисках утраченного ковчега / Raiders of the Lost Ark

Изображение

Год выпуска: 1981
Страна: США
Жанр: Приключения, боевик
Продолжительность: 01:55:13
Перевод: Профессиональный (многоголосый, закадровый)
Режиссёр: Стивен Спилберг
В ролях: Харрисон Форд /Harrison Ford/, Карен Аллен /Karen Allen/, Денхолм Эллиотт /Denholm Elliott/, Джулиан Гловер /Julian Glover/, Джон Риз-Дэйвис /John Rhys-Davies/, Пол Фриман /Paul Freeman/, Роналд Лэйси /Ronald Lacey/, Альфред Моллина /Alfred Molina
Описание: Известный археолог и специалист по оккультным наукам доктор Джонс получает опасное задание от правительства США. Он должен отправиться на поиски уникальной реликвии — священного Ковчега. Но Индиана и не подозревает, что аналогичный приказ уже получили тайные агенты Адольфа Гитлера…
Этим потрясающим фильмом продюсер Джордж Лукас и режиссер Стивен Спилберг положили начало саги о странствиях благородного доктора Джонса по всевозможным уголкам земного шара.

Качество: HDDVDRip, 720p
Формат: MKV
Видео кодек: H264 (AVC)
Аудио кодек: AC3 (Dolby Digital)
Видео: 1280x546, 23.976 fps, x264, 4520.02 kbit/s
Аудио #1: Русский DD 5.1 48 KHz 448 kbps[MVO HTB+]
Аудио #2: Английский DD 5.1 48 KHz 448 kbps[Original]
Субтитры #1: Russian; UTF-8
Субтитры #2: English; ASS

MediaInfo
Video
ID : 1
Format : AVC
Format/Info : Advanced Video Codec
Format profile : High@L4.1
Format settings, CABAC : Yes
Format settings, ReFrames : 11 frames
Muxing mode : Container profile=Unknown@4.1
Codec ID : V_MPEG4/ISO/AVC
Duration : 1h 55mn
Bit rate : 4 414 Kbps
Width : 1 280 pixels
Height : 546 pixels
Display aspect ratio : 2.35:1
Frame rate : 23.976 fps
Resolution : 8 bits
Colorimetry : 4:2:0
Scan type : Progressive
Bits/(Pixel*Frame) : 0.263
Stream size : 3.55 GiB (81%)
Title : Raiders of the Lost Ark
Writing library : x264 core 85 r1442kGIT 781d300
Encoding settings : cabac=1 / ref=11 / deblock=1:-2:-2 / analyse=0x3:0x133 / me=umh / subme=9 / psy=1 / psy_rd=1.20:0.00 / mixed_ref=1 / me_range=64 / chroma_me=1 / trellis=2 / 8x8dct=1 / cqm=0 / deadzone=21,11 / fast_pskip=0 / chroma_qp_offset=-2 / threads=9 / sliced_threads=0 / nr=0 / decimate=1 / mbaff=0 / interlaced=0 / constrained_intra=0 / bframes=16 / b_pyramid=2 / b_adapt=2 / b_bias=0 / direct=3 / wpredb=1 / wpredp=2 / keyint=250 / keyint_min=25 / scenecut=40 / intra_refresh=0 / rc_lookahead=60 / rc=crf / mbtree=0 / crf=19.4 / qcomp=0.60 / qpmin=10 / qpmax=51 / qpstep=4 / vbv_maxrate=50000 / vbv_bufsize=50000 / ip_ratio=1.40 / pb_ratio=1.30 / aq=1:1.10 / pulldown=0 / nal_hrd=0
Language : English

Audio #1
ID : 2
Format : AC-3
Format/Info : Audio Coding 3
Codec ID : A_AC3
Duration : 1h 55mn
Bit rate mode : Constant
Bit rate : 448 Kbps
Channel(s) : 6 channels
Channel positions : Front: L C R, Surround: L R, LFE
Sampling rate : 48.0 KHz
Stream size : 369 MiB (8%)
Title : DD 5.1 48 KHz 448 kbps[MVO HTB+]
Language : Russian

Audio #2
ID : 3
Format : AC-3
Format/Info : Audio Coding 3
Codec ID : A_AC3
Duration : 1h 55mn
Bit rate mode : Constant
Bit rate : 448 Kbps
Channel(s) : 6 channels
Channel positions : Front: L C R, Surround: L R, LFE
Sampling rate : 48.0 KHz
Stream size : 369 MiB (8%)
Title : DD 5.1 48 KHz 448 kbps[Original]
Language : English

Text #1
ID : 4
Format : UTF-8
Codec ID : S_TEXT/UTF8
Codec ID/Info : UTF-8 Plain Text
Language : Russian

Text #2
ID : 5
Format : ASS
Codec ID : S_TEXT/ASS
Codec ID/Info : Advanced Sub Station Alpha
Language : English
Свернуть
Скриншоты
Изображение

Изображение

Изображение
Свернуть
Не в сети
Профиль  
 Добавлено: 2012-04-11 21:42 (спустя 11 месяцев)
Стаж: 6 лет 10 месяцев
Сообщений: 1
скорость дай пож-та
Не в сети
Профиль  
 Добавлено: 2015-04-05 12:03 (спустя 2 года 11 месяцев)
Top-releaser
Аватара пользователя
Стаж: 7 лет 4 месяца
Возраст: 38
Сообщений: 5347
Спасибок: 10065
Лайков: 2936
Прикольный фильм!
Не в сети
Профиль  
Начать новую темуОтветить на тему  [ Сообщений: 3 ] 
Вы не можете начинать темы
Вы не можете отвечать на сообщения
Вы не можете редактировать свои сообщения
Вы не можете удалять свои сообщения