Правила форума

  • В этом разделе создание новых тем Запрещено.
  • Для создания новых тем пользуйтесь Корневым разделом DVD и HD фильмы.
Начать новую темуОтветить на тему  [ Сообщений: 3 ] 
Торрент файл
Размер: 5.82 GB • Зарегистрирован: 5 лет 6 месяцев • Статус: Проверено
Скачан: 132 раза • Желающих скачать: 0 • Поблагодарили: 28 раз
 Раздают: 0  |  0 KB/s  ]   Качают: 0  |  0 KB/s  ] 
 Полного источника не было 1 год 2 месяца 
Сообщения
 Добавлено: 2011-05-16 13:42
Аватара пользователя
Стаж: 8 лет 10 месяцев
Сообщений: 2032
Спасибок: 53740
Лайков: 6
Инопланетное вторжение: Битва за Лос-Анджелес
Battle: Los Angeles



Изображение
Год выпуска: 2011
Страна: США, Columbia Pictures / Relativity Media
Жанр: фантастика, боевик, триллер
Продолжительность: 01:56:10
Перевод: Профессиональный (полное дублирование)

Режиссер: Джонатан Либесман
Сценарий: Кристофер Бертолини
Продюсер: Джеффри Чернов, Нил Х. Мориц, Сэмюэл Дикерман
Оператор: Лукас Эттлин
Композитор: Брайан Тайлер

В ролях: Аарон Экхарт, Бриджет Мойнэхэн, Мишель Родригес, Майкл Пенья, Рамон Родригез, Кори Хардрикт, Джино Энтони, Песи Шаффер, Смит Джеймс, Хироюки Лиао, Ноэль Фишер
Описание: Землю пытается захватить инопланетная цивилизация, истребляя все живое на своем пути. По всему миру начинается широкомасштабное сражение человечества за выживание. Отряду морских пехотинцев поручено во что бы то ни стало освободить осажденный город ангелов от таинственных и смертоносных тварей…

Раздача: Изображение

Изображение

Качество: BDRip 720p
Формат: MKV
Видео: 5213 kb/s, 1280x536
Аудио #1: Russian: AC3, 448 kb/s (6 ch)
Аудио #2: English: DTS, 1536 kb/s (6 ch)
MediaInfo
General
Complete name : H:\Inoplanetnoe.vtorzhenie.Bitva.za.Los-Andzheles.2011.D.BDRip.720p.mkv
Format : Matroska
File size : 5.82 GiB
Duration : 1h 56mn
Overall bit rate : 7 171 Kbps
Encoded date : UTC 2011-05-16 07:09:11
Writing application : mkvmerge v2.9.8 ('C'est le bon') built on Aug 24 2009 17:34:03
Writing library : libebml v0.7.7 + libmatroska v0.8.1
Video #1
ID : 1
Format : AVC
Format/Info : Advanced Video Codec
Format profile : High@L4.1
Format settings, CABAC : Yes
Format settings, ReFrames : 5 frames
Muxing mode : Container profile=Unknown@4.1
Codec ID : V_MPEG4/ISO/AVC
Duration : 1h 56mn
Bit rate : 5 070 Kbps
Nominal bit rate : 5 213 Kbps
Width : 1 280 pixels
Height : 536 pixels
Display aspect ratio : 2.35:1
Frame rate : 23.976 fps
Resolution : 24 bits
Colorimetry : 4:2:0
Scan type : Progressive
Bits/(Pixel*Frame) : 0.308
Stream size : 4.11 GiB (71%)
Writing library : x264 core 115 r1995 c1e60b9
Encoding settings : cabac=1 / ref=5 / deblock=1:-1:-1 / analyse=0x3:0x113 / me=umh / subme=7 / psy=1 / psy_rd=1.00:0.00 / mixed_ref=1 / me_range=16 / chroma_me=1 / trellis=1 / 8x8dct=1 / cqm=0 / deadzone=21,11 / fast_pskip=1 / chroma_qp_offset=-2 / threads=12 / sliced_threads=0 / nr=0 / decimate=1 / interlaced=0 / bluray_compat=0 / constrained_intra=0 / bframes=3 / b_pyramid=2 / b_adapt=2 / b_bias=0 / direct=3 / weightb=1 / open_gop=0 / weightp=2 / keyint=250 / keyint_min=23 / scenecut=40 / intra_refresh=0 / rc_lookahead=40 / rc=2pass / mbtree=1 / bitrate=5213 / ratetol=1.0 / qcomp=0.60 / qpmin=0 / qpmax=69 / qpstep=4 / cplxblur=20.0 / qblur=0.5 / vbv_maxrate=50000 / vbv_bufsize=50000 / nal_hrd=none / ip_ratio=1.40 / aq=1:1.00
Language : English
Audio #2
ID : 2
Format : AC-3
Format/Info : Audio Coding 3
Codec ID : A_AC3
Duration : 1h 56mn
Bit rate mode : Constant
Bit rate : 448 Kbps
Channel(s) : 6 channels
Channel positions : Front: L C R, Surround: L R, LFE
Sampling rate : 48.0 KHz
Video delay : 1s 540ms
Stream size : 372 MiB (6%)
Title : 5.1
Language : Russian
Audio #3
ID : 3
Format : DTS
Format/Info : Digital Theater Systems
Codec ID : A_DTS
Duration : 1h 56mn
Bit rate mode : Constant
Bit rate : 1 510 Kbps
Channel(s) : 6 channels
Channel positions : Front: L C R, Surround: L R, LFE
Sampling rate : 48.0 KHz
Resolution : 16 bits
Video delay : 22ms
Stream size : 1.23 GiB (21%)
Language : English
Свернуть
Доп. информация
Бюджет: $70 000 000
Cборы в мире: $201 604 389
Мировая премьера: 8 марта 2011
Изображение Релиз на DVD: 7 апреля 2011, «Columbia/Sony»
Свернуть
Скриншоты
Изображение

Изображение

Изображение
Свернуть
Не в сети
Профиль  
 Добавлено: 2011-05-16 15:20 (спустя 1 час 37 минут)
Кинокомментатор
Аватара пользователя
Стаж: 9 лет 1 месяц
Сообщений: 1332
Лайков: 54
а почему не прилеплено?
Не в сети
Профиль  
 Добавлено: 2012-01-10 10:47 (спустя 7 месяцев)
Стаж: 7 лет 10 месяцев
Сообщений: 50
Поднажмите чуть чуть осталось(
Не в сети
Профиль  
Начать новую темуОтветить на тему  [ Сообщений: 3 ] 
Вы не можете начинать темы
Вы не можете отвечать на сообщения
Вы не можете редактировать свои сообщения
Вы не можете удалять свои сообщения