Правила форума

  • В этом разделе создание новых тем Запрещено.
  • Для создания новых тем пользуйтесь Корневым разделом DVD и HD фильмы.
Начать новую темуОтветить на тему  [ Сообщений: 10 ] 
Торрент файл
Размер: 12.23 GB • Зарегистрирован: 5 лет 6 месяцев • Статус: Проверено
Скачан: 405 раз • Желающих скачать: 0 • Поблагодарили: 68 раз
 Раздают: 0  |  0 KB/s  ]   Качают: 0  |  0 KB/s  ] 
 Полного источника не было 2 года 5 месяцев 
Сообщения
 Добавлено: 2011-05-16 16:53
Модератор
Аватара пользователя
Стаж: 8 лет 1 месяц
Возраст: 20
Сообщений: 32130
Спасибок: 98564
Лайков: 80
Изображение

Инопланетное вторжение: Битва за Лос-Анджелес / Battle: Los Angeles


Год выпуска: 2011
Страна: США

Жанр: фантастика, боевик
Продолжительность: 01:56:10
Перевод: Оригинальный, Профессиональный (полное дублирование) [лицензия]

Режиссер: Джонатан Либесман
В ролях: Аарон Экхарт, Бриджет Мойнэхэн, Мишель Родригес, Майкл Пенья, Рамон Родригез, Кори Хардрикт, Джино Энтони Песи, Шаффер Смит, Джеймс Хироюки Лиао, Ноэль Фишер
Бюджет: $70 000 000
Сборы в США: $83 004 389
Сборы в России: $8 313 968
Сборы в мире: $201 604 389

Мировая премьера: 8 марта 2011
Релиз на DVD: 7 апреля 2011, «Columbia/Sony»
Описание: Землю пытается захватить инопланетная цивилизация, истребляя все живое на своем пути. По всему миру начинается широкомасштабное сражение человечества за выживание. Отряду морских пехотинцев поручено во что бы то ни стало освободить осажденный город ангелов от таинственных и смертоносных тварей...
Изображение
MPAA: Изображение - Детям до 13 лет просмотр не желателен
Релиз группы: Изображение
Качество: BDRip 1080p R5
Формат: Matroska

Видео: 12.7 mb/s, 1920x800, 23.976 fps
Аудио: Russian / Ukrainian: AC3, 448 kb/s (6 ch) / English: DTS, 1510 kb/s (6 ch)
Субтитры: Russian [Forced], English
Изображение
MediaInfo
General

Complete name                    : Battle.Los.Angeles.2011.D.BDRip.1080p.UNIONGANG.mkv
Format                           : Matroska
File size                        : 12.2 GiB
Duration                         : 1h 56mn
Overall bit rate                 : 15.1 Mbps
Movie name                       : Battle.Los.Angeles.2011.D.BDRip.1080p  -TVB-  UNIONGANG
Encoded date                     : UTC 2011-05-16 11:40:44
Writing application              : mkvmerge v4.7.0 ('Just Like You Imagined') сборка от Apr 21 2011 01:13:14
Writing library                  : libebml v1.2.0 + libmatroska v1.1.0

Video
ID                               : 1
Format                           : AVC
Format/Info                      : Advanced Video Codec
Format profile                   : High@L4.1
Format settings, CABAC           : Yes
Format settings, ReFrames        : 5 frames
Codec ID                         : V_MPEG4/ISO/AVC
Duration                         : 1h 56mn
Bit rate                         : 12.7 Mbps
Width                            : 1 920 pixels
Height                           : 800 pixels
Display aspect ratio             : 2.40:1
Frame rate                       : 23.976 fps
Color space                      : YUV
Chroma subsampling               : 4:2:0
Bit depth                        : 8 bits
Scan type                        : Progressive
Bits/(Pixel*Frame)               : 0.344
Stream size                      : 10.0 GiB (82%)
Writing library                  : x264 core 114 r1924 08d04a4
Encoding settings                : cabac=1 / ref=5 / deblock=1:-3:-3 / analyse=0x3:0x113 / me=umh / subme=10 / psy=1 / psy_rd=1.05:0.10 / mixed_ref=1 / me_range=48 / chroma_me=1 / trellis=2 / 8x8dct=1 / cqm=2 / deadzone=21,11 / fast_pskip=0 / chroma_qp_offset=-2 / threads=12 / sliced_threads=0 / nr=0 / decimate=1 / interlaced=0 / constrained_intra=0 / bframes=6 / b_pyramid=2 / b_adapt=2 / b_bias=0 / direct=3 / weightb=1 / open_gop=0 / weightp=2 / keyint=250 / keyint_min=23 / scenecut=40 / intra_refresh=0 / rc_lookahead=60 / rc=2pass / mbtree=1 / bitrate=12660 / ratetol=1.0 / qcomp=0.70 / qpmin=1 / qpmax=63 / qpstep=4 / cplxblur=20.0 / qblur=0.5 / vbv_maxrate=40000 / vbv_bufsize=40000 / nal_hrd=none / ip_ratio=1.40 / aq=2:0.90
Language                         : English

Audio #1
ID                               : 2
Format                           : AC-3
Format/Info                      : Audio Coding 3
Mode extension                   : CM (complete main)
Codec ID                         : A_AC3
Duration                         : 1h 56mn
Bit rate mode                    : Constant
Bit rate                         : 448 Kbps
Channel(s)                       : 6 channels
Channel positions                : Front: L C R, Side: L R, LFE
Sampling rate                    : 48.0 KHz
Bit depth                        : 16 bits
Compression mode                 : Lossy
Delay relative to video          : 1s 489ms
Stream size                      : 372 MiB (3%)
Language                         : Russian

Audio #2
ID                               : 3
Format                           : AC-3
Format/Info                      : Audio Coding 3
Mode extension                   : CM (complete main)
Codec ID                         : A_AC3
Duration                         : 1h 56mn
Bit rate mode                    : Constant
Bit rate                         : 448 Kbps
Channel(s)                       : 6 channels
Channel positions                : Front: L C R, Side: L R, LFE
Sampling rate                    : 48.0 KHz
Bit depth                        : 16 bits
Compression mode                 : Lossy
Delay relative to video          : 1s 489ms
Stream size                      : 372 MiB (3%)
Language                         : Ukrainian

Audio #3
ID                               : 4
Format                           : DTS
Format/Info                      : Digital Theater Systems
Codec ID                         : A_DTS
Duration                         : 1h 56mn
Bit rate mode                    : Constant
Bit rate                         : 1 510 Kbps
Channel(s)                       : 6 channels
Channel positions                : Front: L C R, Side: L R, LFE
Sampling rate                    : 48.0 KHz
Bit depth                        : 24 bits
Compression mode                 : Lossy
Stream size                      : 1.23 GiB (10%)
Language                         : English

Text #1
ID                               : 5
Format                           : UTF-8
Codec ID                         : S_TEXT/UTF8
Codec ID/Info                    : UTF-8 Plain Text
Title                            : Forced
Language                         : Russian

Text #2
ID                               : 6
Format                           : UTF-8
Codec ID                         : S_TEXT/UTF8
Codec ID/Info                    : UTF-8 Plain Text
Language                         : English
Свернуть
Скриншоты
Изображение

Изображение

Изображение

Изображение
Свернуть
Не в сети
Профиль  
 Добавлено: 2011-05-17 07:20 (спустя 14 часов)
Аватара пользователя
Стаж: 8 лет 11 месяцев
Сообщений: 515
Спасибок: 39
Лайков: 49
На что потратили 70 миллионов непонятно, в фильме я вижу от силы 10. Всё мутное, ничего резко не показывают, каждый спецэффект длится не более 2-3 секунд, тока наводит камера фокус на марсианина, а он уже кончился, западло спецон сделано. В трансформерах я хотябы различал фигуры роботов, и показывают их даже в замедлении, а тут какието привидения. Короче муть а не фильм.
Не в сети
Профиль  
 Добавлено: 2011-05-17 20:39 (спустя 13 часов)
Стаж: 7 лет 4 месяца
Сообщений: 15
Скучный и неинтересный. Скайлайн понравился больше.
Не в сети
Профиль  
 Добавлено: 2011-05-19 21:12 (спустя 2 дня)
Аватара пользователя
Стаж: 8 лет 3 месяца
Сообщений: 67
Не самый плохой фильм про колонизацию инопланетян, который я смотрел.
Не в сети
Профиль  
 Добавлено: 2011-05-22 00:22 (спустя 2 дня 3 часа)
Аватара пользователя
Стаж: 8 лет 9 месяцев
Возраст: 28
Сообщений: 694
Спасибок: 214
Нормальный фильм. Ходил на него в кино, чего ждал то и получил - простенький боевик с ненапряжным сюжетом и кучей пафоса. Плюс инопланетяне получили пинка армейским сапогом, а не передохли от какой-нибудь пыльцы или вирусов.
Не в сети
Профиль  
 Добавлено: 2011-05-22 08:13 (спустя 7 часов)
Аватара пользователя
Стаж: 8 лет 10 месяцев
Возраст: 35
Сообщений: 33
ужас а не фильм, да я в фотошопе спец эфекты лучши бы сделал ))))
Не в сети
Профиль  
 Добавлено: 2011-05-23 13:17 (спустя 1 день 5 часов)
Кинокомментатор
Аватара пользователя
Стаж: 9 лет
Сообщений: 1331
Лайков: 52
норм киношка) понятно куда деньги ушли:) автострады и дома строить бесплатно тоже ни кто не станет;) актёры средненькие:) но хорошие) но под конец я заскучал) не много:) но нормалёк:) в принципе смотреть можно;)
Не в сети
Профиль  
 Добавлено: 2011-05-29 19:38 (спустя 6 дней)
Аватара пользователя
Стаж: 7 лет 5 месяцев
Сообщений: 35
Вообще не понимаю как можно смотреть такое "ДЕРЬМО", ведь само название говорит само за себя!!!
Не в сети
Профиль  
 Добавлено: 2011-06-10 19:43 (спустя 12 дней)
Аватара пользователя
Стаж: 8 лет 3 месяца
Возраст: 43
Сообщений: 3290
Спасибок: 21012
Лайков: 3
отлепляем :(
_________________
Изображение
Не в сети
Профиль  
 Добавлено: 2012-04-07 22:24 (спустя 9 месяцев)
Аватара пользователя
Стаж: 8 лет 1 месяц
Возраст: 26
Сообщений: 132
Лайков: 1
встаньте на раздачу пожплуста :du_ma_et:
Не в сети
Профиль  
Начать новую темуОтветить на тему  [ Сообщений: 10 ] 
Вы не можете начинать темы
Вы не можете отвечать на сообщения
Вы не можете редактировать свои сообщения
Вы не можете удалять свои сообщения