Правила форума

  • В этом разделе создание новых тем Запрещено.
  • Для создания новых тем пользуйтесь Корневым разделом DVD и HD фильмы.
Начать новую темуОтветить на тему  [ Сообщений: 3 ] 
Торрент файл
Размер: 10.66 GB • Зарегистрирован: 1 год 8 месяцев • Статус: Проверено
Скачан: 504 раза • Желающих скачать: 0 • Поблагодарили: 71 раз
 Раздают: 3  |  3 KB/s  ]   Качают: 0  |  0 KB/s  ] 
Сообщения
 Добавлено: 2015-03-17 11:00
Модератор
Аватара пользователя
Стаж: 5 лет 8 месяцев
Сообщений: 6281
Спасибок: 17333
Лайков: 1633
Изображение

Интерстеллар

Interstellar


«Следующий шаг человечества станет величайшим»

Год выпуска: 2014
Страна: США, Великобритания, Канада; Legendary Pictures, Lynda Obst Productions, Paramount Pictures, Warner Bros.
Жанр: Фантастика, драма, приключения
Продолжительность: 02:49:04
Перевод: Профессиональный (дублированный) [Лицензия], Оригинал
Субтитры: Русские, английские
Режиссёр: Кристофер Нолан / Christopher Nolan
В ролях: Мэттью МакКонахи, Энн Хэтэуэй, Кейси Аффлек, Джессика Честейн, Тофер Грейс, Уэс Бентли, Майкл Кейн, Маккензи Фой, Джон Литгоу, Эллен Бёрстин

Описание: Когда засуха приводит человечество к продовольственному кризису, коллектив исследователей и учёных отправляется сквозь червоточину (которая предположительно соединяет области пространства-времени через большое расстояние) в путешествие, чтобы превзойти прежние ограничения для космических путешествий человека и переселить человечество на другую планету.

Качество: BDRip 1080p
Формат: MKV
Видео: MPEG-4 AVC, 8000 Кбит/с, 1920x1080
Аудио 1: AC3, 6 ch, 384 Кбит/с [Дубляж]
Аудио 2: AC3, 6 ch, 640 Кбит/с [Оригинал]
Изображение
MediaInfo

Общее
Уникальный идентификатор : 199756113916458751758460566862047753375 (0x9647A0CD8FA4B9F392D200F71324349F)
Полное имя : F:\Interstellar.2014.D.BDRip.(1080p)._by_bog3417.mkv
Формат : Matroska
Версия формата : Version 2
Размер файла : 10,7 Гбайт
Продолжительность : 2 ч. 49 м.
Общий поток : 9026 Кбит/сек
Название фильма : by_Богдан@bog3417
Дата кодирования : UTC 2015-03-16 17:47:37
Программа кодирования : mkvmerge v7.4.0 ('Circles') 64bit built on Dec 12 2014 12:19:56
Библиотека кодирования : libebml v1.3.0 + libmatroska v1.4.1
_STATISTICS_WRITING_APP : mkvmerge v7.4.0 ('Circles') 64bit built on Dec 12 2014 12:19:56
_STATISTICS_WRITING_DATE_UTC : 2015-03-16 17:47:37
_STATISTICS_TAGS : BPS DURATION NUMBER_OF_FRAMES NUMBER_OF_BYTES
DURATION : 02:49:02.720000000
NUMBER_OF_FRAMES : 316960
NUMBER_OF_BYTES : 486850560

Видео
Идентификатор : 1
Формат : AVC
Формат/Информация : Advanced Video Codec
Профиль формата : High@L4.1
Параметр CABAC формата : Да
Параметр ReFrames формата : 4 кадра
Идентификатор кодека : V_MPEG4/ISO/AVC
Продолжительность : 2 ч. 49 м.
Битрейт : 8000 Кбит/сек
Ширина : 1920 пикселей
Высота : 1080 пикселей
Соотношение сторон : 16:9
Режим частоты кадров : Постоянный
Частота кадров : 23,976 кадра/сек
Цветовое пространство : YUV
Субдискретизация насыщенности : 4:2:0
Битовая глубина : 8 бит
Тип развёртки : Прогрессивная
Бит/(Пиксели*Кадры) : 0.161
Размер потока : 9,24 Гбайт (87%)
Заголовок : by_Богдан@bog3417
Библиотека кодирования : x264 core 142 r2431 ac76440
Настройки программы : cabac=1 / ref=4 / deblock=1:-3:-3 / analyse=0x3:0x133 / me=umh / subme=10 / psy=1 / psy_rd=1.00:0.00 / mixed_ref=1 / me_range=32 / chroma_me=1 / trellis=2 / 8x8dct=1 / cqm=0 / deadzone=21,11 / fast_pskip=0 / chroma_qp_offset=-2 / threads=4 / lookahead_threads=1 / sliced_threads=0 / nr=0 / decimate=0 / interlaced=0 / bluray_compat=0 / constrained_intra=0 / bframes=9 / b_pyramid=2 / b_adapt=2 / b_bias=0 / direct=3 / weightb=1 / open_gop=0 / weightp=2 / keyint=240 / keyint_min=24 / scenecut=40 / intra_refresh=0 / rc_lookahead=40 / rc=2pass / mbtree=1 / bitrate=8000 / ratetol=1.0 / qcomp=0.60 / qpmin=10 / qpmax=51 / qpstep=4 / cplxblur=20.0 / qblur=0.5 / ip_ratio=1.40 / aq=1:1.00
Default : Да
Forced : Нет

Аудио #1
Идентификатор : 2
Формат : AC-3
Формат/Информация : Audio Coding 3
Расширение режима : CM (complete main)
Параметр Endianness формата : Big
Идентификатор кодека : A_AC3
Продолжительность : 2 ч. 49 м.
Вид битрейта : Постоянный
Битрейт : 384 Кбит/сек
Каналы : 6 каналов
Расположение каналов : Front: L C R, Side: L R, LFE
Частота : 48,0 КГц
Битовая глубина : 16 бит
Метод сжатия : С потерями
Размер потока : 464 Мбайт (4%)
Заголовок : iTunes
Язык : Russian
Default : Да
Forced : Нет

Аудио #2
Идентификатор : 3
Формат : AC-3
Формат/Информация : Audio Coding 3
Расширение режима : CM (complete main)
Параметр Endianness формата : Big
Идентификатор кодека : A_AC3
Продолжительность : 2 ч. 49 м.
Вид битрейта : Постоянный
Битрейт : 640 Кбит/сек
Каналы : 6 каналов
Расположение каналов : Front: L C R, Side: L R, LFE
Частота : 48,0 КГц
Битовая глубина : 16 бит
Метод сжатия : С потерями
Размер потока : 774 Мбайт (7%)
Язык : English
Default : Нет
Forced : Нет

Текст #1
Идентификатор : 4
Формат : UTF-8
Идентификатор кодека : S_TEXT/UTF8
Идентификатор кодека/Информация : UTF-8 Plain Text
Язык : Russian
Default : Нет
Forced : Нет

Текст #2
Идентификатор : 5
Формат : UTF-8
Идентификатор кодека : S_TEXT/UTF8
Идентификатор кодека/Информация : UTF-8 Plain Text
Язык : English
Default : Нет
Forced : Нет

Меню
00:00:00.000 : en:00:00:00.000
00:09:35.492 : en:00:09:35.492
00:17:12.323 : en:00:17:12.323
00:25:00.749 : en:00:25:00.749
00:35:45.393 : en:00:35:45.393
00:42:16.868 : en:00:42:16.868
00:50:19.892 : en:00:50:19.892
00:54:48.076 : en:00:54:48.076
00:58:59.703 : en:00:58:59.703
01:06:15.013 : en:01:06:15.013
01:17:28.185 : en:01:17:28.185
01:25:32.002 : en:01:25:32.002
01:34:32.000 : en:01:34:32.000
01:46:14.702 : en:01:46:14.702
01:55:34.553 : en:01:55:34.553
02:02:14.369 : en:02:02:14.369
02:12:56.844 : en:02:12:56.844
02:20:53.820 : en:02:20:53.820
02:35:12.094 : en:02:35:12.094
02:43:59.830 : en:02:43:59.830
Свернуть
Скриншоты

ИзображениеИзображениеИзображение
Свернуть
_________________
Изображение Изображение Изображение
Не в сети
Профиль  
 Добавлено: 2015-03-21 17:50 (спустя 4 дня)
Аватара пользователя
Стаж: 8 лет 7 месяцев
Возраст: 34
Сообщений: 115
Лайков: 3
спасибо!
Не в сети
Профиль  
 Добавлено: 2015-05-19 18:41 (спустя 1 месяц 29 дней)
Аватара пользователя
Стаж: 8 лет
Сообщений: 32
Скрины че то качества то говённинького(
Не в сети
Профиль  
Начать новую темуОтветить на тему  [ Сообщений: 3 ] 
Вы не можете начинать темы
Вы не можете отвечать на сообщения
Вы не можете редактировать свои сообщения
Вы не можете удалять свои сообщения