Правила форума

  • В этом разделе создание новых тем Запрещено.
  • Для создания новых тем пользуйтесь Корневым разделом DVD и HD фильмы.
Начать новую темуОтветить на тему  [ Сообщений: 11 ] 
Торрент файл
Размер: 45.53 GB • Зарегистрирован: 1 год 8 месяцев • Статус: Проверено
Скачан: 195 раз • Желающих скачать: 0 • Поблагодарили: 38 раз
 Раздают: 0  |  0 KB/s  ]   Качают: 0  |  0 KB/s  ] 
 Полного источника не было 2 часа 42 минуты 
Сообщения
 Добавлено: 2015-03-18 00:02
Модератор
Аватара пользователя
Стаж: 5 лет 8 месяцев
Сообщений: 6281
Спасибок: 17342
Лайков: 1633
Интерстеллар

Interstellar


Изображение


Год выпуска: 2014
Страна: США, Великобритания
Жанр: Фантастика, боевик, детектив, приключения
Продолжительность: 02:49:00
Перевод: Дублированный, профессиональный (многоголосый), авторский (Есарев)
Субтитры: Русские, английские, немецкие
Режиссер: Кристофер Нолан
В ролях: Мэттью МакКонахи, Энн Хэтэуэй, Кейси Аффлек, Джессика Честейн, Тофер Грейс, Уэс Бентли, Майкл Кейн, Маккензи Фой, Джон Литгоу, Эллен Бёрстин, Дэвид Гяси
Описание: Когда засуха приводит человечество к продовольственному кризису, коллектив исследователей и учёных отправляется сквозь червоточину (которая предположительно соединяет области пространства-времени через большое расстояние) в путешествие, чтобы превзойти прежние ограничения для космических путешествий человека и переселить человечество на другую планету.
Изображение Изображение
Качество: Blu-Ray (1080p)
Формат: BDMV
Видео: MPEG-4 AVC, 24222 Кбит/с, 1920x1080
Аудио: Русский (DTS-HD MA, 6 ch, 3731 Кбит/с), (DTS-HD MA, 6 ch, 3734 Кбит/с), (AC3, 6 ch, 384 Кбит/с), украинский (AC3, 2 ch, 192 Кбит/с), английский (DTS-HD MA, 6 ch, 3693 Кбит/с)
MI
Общее
Полное имя : F:\Films\INTERSTELLAR_BD_IMAX_BY_HDCLUB
Формат : Blu-ray movie
Профиль формата : BD-Java
Продолжительность : 2 ч. 49 м.
Режим общего битрейта : Переменный
Общий поток : 0 бит/сек

Видео
Идентификатор : 4113 (0x1011)
Идентификатор меню : 1 (0x1)
Формат : AVC
Формат/Информация : Advanced Video Codec
Профиль формата : High@L4.1
Параметр CABAC формата : Да
Параметр ReFrames формата : 2 кадра
Параметр GOP формата : M=1, N=10
Идентификатор кодека : 27
Продолжительность : 2 ч. 49 м.
Вид битрейта : Переменный
Ширина : 1920 пикселей
Высота : 1080 пикселей
Соотношение сторон : 16:9
Частота кадров : 23,976 кадра/сек
Цветовое пространство : YUV
Субдискретизация насыщенности : 4:2:0
Битовая глубина : 8 бит
format_identifier : HDMV
Оригинал : 00007.m2ts

Аудио #1
Идентификатор : 4352 (0x1100)
Идентификатор меню : 1 (0x1)
Формат : AC-3
Формат/Информация : Audio Coding 3
Расширение режима : CM (complete main)
Параметр Endianness формата : Big
Идентификатор кодека : 129
Продолжительность : 2 ч. 49 м.
Вид битрейта : Постоянный
Битрейт : 384 Кбит/сек
Каналы : 6 каналов
Расположение каналов : Front: L C R, Side: L R, LFE
Частота : 48,0 КГц
Битовая глубина : 16 бит
Метод сжатия : С потерями
Размер потока : 464 Мбайт (1%)
Язык : Russian
dialnorm : -31
dialnorm/String : -31 dB
bsid : 8
dialnorm_Average : -27
dialnorm_Average/String : -27 dB
dialnorm_Minimum : -31
dialnorm_Minimum/String : -31 dB
dialnorm_Maximum : -27
dialnorm_Maximum/String : -27 dB
dialnorm_Count : 168
compr_Average : 6.02
compr_Average/String : 6.02 dB
compr_Minimum : 6.02
compr_Minimum/String : 6.02 dB
compr_Maximum : 6.02
compr_Maximum/String : 6.02 dB
compr_Count : 166
dynrng_Average : 5.98
dynrng_Average/String : 5.98 dB
dynrng_Minimum : 0.00
dynrng_Minimum/String : 0.00 dB
dynrng_Maximum : 6.02
dynrng_Maximum/String : 6.02 dB
dynrng_Count : 168
format_identifier : AC-3
Оригинал : 00007.m2ts

Аудио #2
Идентификатор : 4353 (0x1101)
Идентификатор меню : 1 (0x1)
Формат : DTS
Формат/Информация : Digital Theater Systems
Профиль формата : MA / Core
Режим : 16
Параметр Endianness формата : Big
Режим смешивания : Stream extension
Идентификатор кодека : 134
Продолжительность : 2 ч. 49 м.
Вид битрейта : Переменный
Битрейт : Неизвестно / 1509 Кбит/сек
Каналы : 6 каналов
Расположение каналов : Front: L C R, Side: L R, LFE
Частота : 48,0 КГц
Битовая глубина : 24 бит
Метод сжатия : Без потерь / Lossy
Язык : Russian
Оригинал : 00007.m2ts

Аудио #3
Идентификатор : 4354 (0x1102)
Идентификатор меню : 1 (0x1)
Формат : DTS
Формат/Информация : Digital Theater Systems
Профиль формата : MA / Core
Режим : 16
Параметр Endianness формата : Big
Режим смешивания : Stream extension
Идентификатор кодека : 134
Продолжительность : 2 ч. 49 м.
Вид битрейта : Переменный
Битрейт : Неизвестно / 1509 Кбит/сек
Каналы : 6 каналов
Расположение каналов : Front: L C R, Side: L R, LFE
Частота : 48,0 КГц
Битовая глубина : 24 бит
Метод сжатия : Без потерь / Lossy
Язык : Russian
Оригинал : 00007.m2ts

Аудио #4
Идентификатор : 4355 (0x1103)
Идентификатор меню : 1 (0x1)
Формат : AC-3
Формат/Информация : Audio Coding 3
Расширение режима : CM (complete main)
Параметр Endianness формата : Big
Идентификатор кодека : 129
Продолжительность : 2 ч. 49 м.
Вид битрейта : Постоянный
Битрейт : 192 Кбит/сек
Каналы : 2 канала
Расположение каналов : Front: L R
Частота : 48,0 КГц
Битовая глубина : 16 бит
Метод сжатия : С потерями
Размер потока : 232 Мбайт (0%)
Язык : Ukrainian
dsurmod : 0
dialnorm : -31
dialnorm/String : -31 dB
bsid : 8
dialnorm_Average : -31
dialnorm_Average/String : -31 dB
dialnorm_Minimum : -31
dialnorm_Minimum/String : -31 dB
dialnorm_Maximum : -31
dialnorm_Maximum/String : -31 dB
dialnorm_Count : 157
format_identifier : AC-3
Оригинал : 00007.m2ts

Аудио #5
Идентификатор : 4356 (0x1104)
Идентификатор меню : 1 (0x1)
Формат : DTS
Формат/Информация : Digital Theater Systems
Профиль формата : MA / Core
Режим : 16
Параметр Endianness формата : Big
Режим смешивания : Stream extension
Идентификатор кодека : 134
Продолжительность : 2 ч. 49 м.
Вид битрейта : Переменный
Битрейт : Неизвестно / 1509 Кбит/сек
Каналы : 6 каналов
Расположение каналов : Front: L C R, Side: L R, LFE
Частота : 48,0 КГц
Битовая глубина : 24 бит
Метод сжатия : Без потерь / Lossy
Язык : English
Оригинал : 00007.m2ts

Текст #1
Идентификатор : 4608 (0x1200)
Идентификатор меню : 1 (0x1)
Формат : PGS
Идентификатор кодека : 144
Продолжительность : 2 ч. 49 м.
Язык : Russian
Оригинал : 00007.m2ts

Текст #2
Идентификатор : 4609 (0x1201)
Идентификатор меню : 1 (0x1)
Формат : PGS
Идентификатор кодека : 144
Продолжительность : 2 ч. 49 м.
Язык : Russian
Оригинал : 00007.m2ts

Текст #3
Идентификатор : 4610 (0x1202)
Идентификатор меню : 1 (0x1)
Формат : PGS
Идентификатор кодека : 144
Продолжительность : 2 ч. 49 м.
Язык : German
Оригинал : 00007.m2ts

Текст #4
Идентификатор : 4611 (0x1203)
Идентификатор меню : 1 (0x1)
Формат : PGS
Идентификатор кодека : 144
Продолжительность : 2 ч. 49 м.
Язык : English
Оригинал : 00007.m2ts

Меню
00:00:00.000 : Chapter 1
00:09:34.448 : Chapter 2
00:17:11.030 : Chapter 3
00:24:59.289 : Chapter 4
00:35:43.307 : Chapter 5
00:42:13.697 : Chapter 6
00:50:16.388 : Chapter 7
00:54:44.447 : Chapter 8
00:58:56.032 : Chapter 9
01:06:10.341 : Chapter 10
01:17:23.013 : Chapter 11
01:25:26.412 : Chapter 12
01:34:25.660 : Chapter 13
01:46:08.236 : Chapter 14
01:55:27.128 : Chapter 15
02:02:06.819 : Chapter 16
02:12:48.710 : Chapter 17
02:20:45.395 : Chapter 18
02:35:02.334 : Chapter 19
02:43:50.028 : Chapter 20
02:48:53.289 : Chapter 21

Свернуть
"Скриншоты"
Изображение
Изображение
Изображение
Свернуть
_________________
Изображение Изображение Изображение
 segotsky нравится это.
Не в сети
Профиль  
 Добавлено: 2015-03-19 21:26 (спустя 1 день 21 час)
Аватара пользователя
Стаж: 5 лет 1 месяц
Возраст: 41
Сообщений: 41
Лайков: 2
Интересно, а в 3D будет? Стоит ждать или эту версию качать?
Не в сети
Профиль  
 Добавлено: 2015-03-19 23:28 (спустя 2 часа 2 минуты)
Стаж: 4 года
Сообщений: 13
Лайков: 1
Крис Нолан не снимает фильмы в 3D. Качай!
 pariah нравится это.
Не в сети
Профиль  
 Добавлено: 2015-03-20 22:33 (спустя 23 часа)
Аватара пользователя
Стаж: 8 лет 1 месяц
Сообщений: 26
Спасибок: 11
Класс! То, что доктор прописал! Спасибо всем! Фильм 10 из 10. Скорее психология чем фантастика.
Не в сети
Профиль  
 Добавлено: 2015-03-21 18:55 (спустя 20 часов)
Аватара пользователя
Стаж: 3 года 5 месяцев
Сообщений: 6
:bra_vo: Класс! Но как скорости добавить??? 12 часов в прогнозах((((
Не в сети
Профиль  
 Добавлено: 2015-03-21 19:22 (спустя 26 минут)
Аватара пользователя
Стаж: 8 лет 11 месяцев
Сообщений: 361
Спасибок: 278
Лайков: 2
Это уже лицензия или нет?Везде русский звук стянут с ITunes. :)
_________________
Intel Core i5-3550, 8 Гб DDR3, Gainward GeForce GTX 660, Windows 10 Профессиональная X64 :exp_minus:
Не в сети
Профиль  
 Добавлено: 2015-03-22 17:41 (спустя 22 часа)
Аватара пользователя
Стаж: 3 года 5 месяцев
Сообщений: 6
Шел второй день скачки.....
Не в сети
Профиль  
 Добавлено: 2015-03-24 16:26 (спустя 1 день 22 часа)
Top-seeder
Аватара пользователя
Стаж: 8 лет 1 месяц
Сообщений: 113
Спасибок: 79
Лайков: 1
Великолепный фильм!!!!
Не в сети
Профиль  
 Добавлено: 2015-04-02 17:28 (спустя 9 дней)
Стаж: 8 лет 1 месяц
Сообщений: 216
Лайков: 24
мой телек не читает его почемуто... :'(
Не в сети
Профиль  
 Добавлено: 2015-04-09 21:12 (спустя 7 дней)
Аватара пользователя
Стаж: 8 лет 7 месяцев
Сообщений: 55
Спасибок: 100
Лайков: 2
понравился фильм. Правда в конце как то сумбурно развязали клубок, но прям очень приятно было посмореть
Не в сети
Профиль  
 Добавлено: 2015-04-14 08:23 (спустя 4 дня)
Стаж: 7 лет
Сообщений: 10

рюрика:

мой телек не читает его почемуто... :'(
Вряд ли телек способен сам прочитать BR3D, я во всяком случае таких не знаю (не то чтобы не мог в принципе, копирасты наверное запретили данную возможность).
Не в сети
Профиль  
Начать новую темуОтветить на тему  [ Сообщений: 11 ] 
Вы не можете начинать темы
Вы не можете отвечать на сообщения
Вы не можете редактировать свои сообщения
Вы не можете удалять свои сообщения