Правила форума

  • В этом разделе создание новых тем Запрещено.
  • Для создания новых тем пользуйтесь Корневым разделом DVD и HD фильмы.
Начать новую темуОтветить на тему  [ Сообщений: 9 ] 
Торрент файл
Размер: 4.55 GB • Зарегистрирован: 1 год 11 месяцев • Статус: T Временный релиз
Скачан: 141 раз • Желающих скачать: 0 • Поблагодарили: 25 раз
 Раздают: 2  |  0 KB/s  ]   Качают: 0  |  0 KB/s  ] 
Сообщения
 Добавлено: 2014-12-29 01:47
DVD Release Group
Аватара пользователя
Стаж: 7 лет 1 месяц
Сообщений: 3542
Спасибок: 246717
Лайков: 1016
Интервью

The Interview


Изображение


Год выпуска: 2014
Страна: США
Жанр: Боевик, комедия
Продолжительность: 01:52:10
Перевод: Профессиональный (многоголосый)
Субтитры: Нет
Режиссер: Эван Голдберг, Сет Роген
В ролях: Джеймс Франко, Сет Роген, Лиззи Каплан, Рэндолл Парк, Диана Банг, Тимоти С. Саймонс, Риз Александр, Джеймс Йи, Пол Бай, Джофф Густафссон
Описание: Дэйв — фантастически талантливый журналист популярного ток-шоу, продюсирует которое его лучший друг Аарон. Друзья, давно мечтавшие сделать что-то по-настоящему значимое, решают взять интервью у северокорейского диктатора Ким Чен Ына. Вскоре к ним обращается ЦРУ, которое просит наших героев ни много ни мало — убить Кима. Так начинается веселая история о двух наименее квалифицированных наемных убийцах в истории человечества…
Изображение
Sample:
http://sendfile.su/1067293
Качество: WEB-DL 1080p
Формат: MKV
Видео кодек: H.264
Аудио кодек: AC3
Видео: 1920x800 23.98fps 5119kbps
Аудио:
Аудио Rus: 48kHz 6ch 384kbps
Аудио Eng: 48kHz 2ch 384kbps
"MediaInfo"
Формат : Matroska
Версия формата : Version 2
Размер файла : 4,55 Гбайт
Продолжительность : 1 ч. 52 м.
Режим общего битрейта : Переменный
Общий поток : 5811 Кбит/сек
Название фильма : The.Interview.2014.P.WEB-DL.1080p
Дата кодирования : UTC 2014-12-28 12:05:30
Программа кодирования : mkvmerge v5.8.0 ('No Sleep / Pillow') built on Sep 2 2012 15:37:04
Библиотека кодирования : libebml v1.2.3 + libmatroska v1.3.0
DURATION : 01:52:07.040000000
NUMBER_OF_FRAMES : 210220
NUMBER_OF_BYTES : 161448960
_STATISTICS_WRITING_APP : mkvmerge v7.4.0 ('Circles') 64bit built on Dec 12 2014 12:19:56
_STATISTICS_WRITING_DATE_UTC : 2014-12-25 03:38:55
_STATISTICS_TAGS : BPS DURATION NUMBER_OF_FRAMES NUMBER_OF_BYTES

Видео
Идентификатор : 1
Формат : AVC
Формат/Информация : Advanced Video Codec
Профиль формата : High@L4.0
Параметр CABAC формата : Да
Параметр ReFrames формата : 2 кадра
Параметр GOP формата : M=2, N=12
Идентификатор кодека : V_MPEG4/ISO/AVC
Продолжительность : 1 ч. 52 м.
Вид битрейта : Переменный
Битрейт : 5119 Кбит/сек
Максимальный битрейт : 6000 Кбит/сек
Ширина : 1920 пикселей
Высота : 800 пикселей
Соотношение сторон : 2,40:1
Режим частоты кадров : Постоянный
Частота кадров : 23,976 кадра/сек
Цветовое пространство : YUV
Субдискретизация насыщенности : 4:2:0
Битовая глубина : 8 бит
Тип развёртки : Прогрессивная
Бит/(Пиксели*Кадры) : 0.139
Размер потока : 4,01 Гбайт (88%)
Заголовок : The.Interview.2014.P.WEB-DL.1080p
Язык : Russian
Default : Да
Forced : Нет

Аудио #1
Идентификатор : 2
Формат : AC-3
Формат/Информация : Audio Coding 3
Расширение режима : CM (complete main)
Параметр Endianness формата : Big
Идентификатор кодека : A_AC3
Продолжительность : 1 ч. 52 м.
Вид битрейта : Постоянный
Битрейт : 384 Кбит/сек
Каналы : 6 каналов
Расположение каналов : Front: L C R, Side: L R, LFE
Частота : 48,0 КГц
Битовая глубина : 16 бит
Метод сжатия : С потерями
Задержка видео : 24 мс.
Размер потока : 308 Мбайт (7%)
Заголовок : P - The.Interview.2014.P.WEB-DL.1080p
Язык : Russian
Default : Да
Forced : Да

Аудио #2
Идентификатор : 3
Формат : AC-3
Формат/Информация : Audio Coding 3
Расширение режима : CM (complete main)
Параметр Endianness формата : Big
Идентификатор кодека : A_AC3
Продолжительность : 1 ч. 52 м.
Вид битрейта : Постоянный
Битрейт : 192 Кбит/сек
Каналы : 2 канала
Расположение каналов : Front: L R
Частота : 48,0 КГц
Битовая глубина : 16 бит
Метод сжатия : С потерями
Размер потока : 154 Мбайт (3%)
Заголовок : Original - The.Interview.2014.P.WEB-DL.1080p
Язык : English
Default : Нет
Forced : Нет
Свернуть

"Скриншоты"
Изображение
Изображение
Изображение
Изображение
Свернуть
Не в сети
Профиль  
 Добавлено: 2014-12-30 17:21 (спустя 1 день 15 часов)
Стаж: 8 лет 10 месяцев
Сообщений: 143
Спасибок: 37
Лайков: 11
чушь
В сети
Профиль  
 Добавлено: 2014-12-30 17:36 (спустя 15 минут)
Кинокомментатор
Аватара пользователя
Стаж: 9 лет
Сообщений: 1331
Лайков: 52
а лицензии не будет?
Не в сети
Профиль  
 Добавлено: 2015-01-02 20:10 (спустя 3 дня)
Аватара пользователя
Стаж: 7 лет 2 месяца
Сообщений: 287
Спасибок: 76
Лайков: 20

gsergey:

чушь
ты бы еще написал,что все неправда и такого не было.
я в шоке от твоего умственного развития.
_________________
Изображение Изображение
Не в сети
Профиль  
 Добавлено: 2015-01-07 17:29 (спустя 4 дня)
Стаж: 8 лет 10 месяцев
Сообщений: 143
Спасибок: 37
Лайков: 11

diman290480:

gsergey:

чушь
ты бы еще написал,что все неправда и такого не было.
я в шоке от твоего умственного развития.
умник выпендрился
В сети
Профиль  
 Добавлено: 2015-01-08 22:08 (спустя 1 день 4 часа)
Аватара пользователя
Стаж: 7 лет 2 месяца
Сообщений: 287
Спасибок: 76
Лайков: 20

gsergey:

diman290480:

gsergey:

чушь
ты бы еще написал,что все неправда и такого не было.
я в шоке от твоего умственного развития.
умник выпендрился
недалекий ответил.
_________________
Изображение Изображение
Не в сети
Профиль  
 Добавлено: 2015-01-09 13:54 (спустя 15 часов)
Стаж: 8 лет 10 месяцев
Сообщений: 143
Спасибок: 37
Лайков: 11

diman290480:

gsergey:

diman290480:

gsergey:

чушь
ты бы еще написал,что все неправда и такого не было.
я в шоке от твоего умственного развития.
умник выпендрился
недалекий ответил.
сиди там и возбуждайся от себя какой ты охеренный , а другие тупые. Ты че ко мне пристал т. Ты гей похоже.
В сети
Профиль  
 Добавлено: 2015-01-09 15:35 (спустя 1 час 41 минута)
Аватара пользователя
Стаж: 7 лет 2 месяца
Сообщений: 287
Спасибок: 76
Лайков: 20

gsergey:

diman290480:

gsergey:

diman290480:

gsergey:

чушь
ты бы еще написал,что все неправда и такого не было.
я в шоке от твоего умственного развития.
умник выпендрился
недалекий ответил.
сиди там и возбуждайся от себя какой ты охеренный , а другие тупые. Ты че ко мне пристал т. Ты гей похоже.
видимо ты в геях спец.мозг не жмет?
_________________
Изображение Изображение
Не в сети
Профиль  
 Добавлено: 2015-01-26 09:14 (спустя 16 дней)
Стаж: 8 лет
Сообщений: 210
Спасибок: 1
Лайков: 3
отстой полнейший!!!
Не в сети
Профиль  
Начать новую темуОтветить на тему  [ Сообщений: 9 ] 
Вы не можете начинать темы
Вы не можете отвечать на сообщения
Вы не можете редактировать свои сообщения
Вы не можете удалять свои сообщения