Правила форума

  • В этом разделе создание новых тем Запрещено.
  • Для создания новых тем пользуйтесь Корневым разделом DVD и HD фильмы.
Начать новую темуОтветить на тему  [ Сообщений: 4 ] 
Торрент файл
Размер: 9.92 GB • Зарегистрирован: 5 лет 4 месяца • Статус: Проверено
Скачан: 262 раза • Желающих скачать: 0 • Поблагодарили: 32 раза
 Раздают: 0  |  0 KB/s  ]   Качают: 0  |  0 KB/s  ] 
 Полного источника не было 3 года 
Сообщения
 Добавлено: 2011-07-27 20:11
Модератор релиз-группы
Аватара пользователя
Стаж: 9 лет 1 месяц
Возраст: 97
Сообщений: 11660
Спасибок: 6533
Лайков: 269
Ирландец / Kill the Irishman

Изображение


Год выпуска: 2010
Страна: США
Жанр: триллер, криминал, биография
Продолжительность: 01:46:36
Перевод: Профессиональный,многоголосый (Лицензия)
Оригинальная звуковая дорожка
Cубтитры: русские

Режиссёр: Джонатан Хенсли / Jonathan Hensleigh
В ролях: Рэй Стивенсон, Винсент Д’Онофрио, Вэл Килмер, Линда Карделлини, Кристофер Уокен, Тони Дарроу, Роберт Дави, Фионнула Флэнаган, Боб Гантон, Джейсон Батлер Харнер, Винни Джонс
Описание: Фильм основан на реальных событиях из жизни гангстера Дэнни Грина, на его взлетах и падениях.

Изображение

Качество: BDRip
Формат: MKV
Видео кодек: MPEG4(AVC)
Аудио кодек: AC3 (Dolby Digital)
Видео: MPEG-4 AVC, 1920x1080 (16:9), 12.6 Mbps, 23.976 fps
Аудио #1: Rus, AC3 Dolby Digital; 48 KHz; 384 kbps; 3/2 (L,C,R,l,r) + LFE ch [Профессиональный,многоголосый (Лицензия)]
Аудио #2: Eng, AC3 Dolby Digital; 48 KHz; 384 kbps; 3/2 (L,C,R,l,r) + LFE ch [Оригинальная звуковая дорожка]
Cубтитры: русские
Скриншоты
Изображение

Изображение

Изображение

Изображение

Изображение
Свернуть

Mi
Format : Matroska
Format version : Version 2
File size : 9.92 GiB
Duration : 1h 46mn
Overall bit rate : 13.3 Mbps
Movie name : Irlandets / 2011 / Release by Vaippp / HQ-ViDEO
Encoded date : UTC 2011-07-27 16:57:31
Writing application : mkvmerge v4.8.0 ('I Got The...') сборка от May 24 2011 03:12:58
Writing library : libebml v1.2.0 + libmatroska v1.1.0

Video
ID : 1
Format : AVC
Format/Info : Advanced Video Codec
Format profile : High@L4.1
Format settings, CABAC : Yes
Format settings, ReFrames : 4 frames
Codec ID : V_MPEG4/ISO/AVC
Duration : 1h 46mn
Bit rate : 12.6 Mbps
Width : 1 920 pixels
Height : 1 080 pixels
Display aspect ratio : 16:9
Frame rate : 23.976 fps
Color space : YUV
Chroma subsampling : 4:2:0
Bit depth : 8 bits
Scan type : Progressive
Bits/(Pixel*Frame) : 0.253
Stream size : 9.15 GiB (92%)
Writing library : x264 core 114 r1924 08d04a4
Encoding settings : cabac=1 / ref=4 / deblock=1:-3:-3 / analyse=0x3:0x113 / me=umh / subme=10 / psy=1 / psy_rd=1.10:0.15 / mixed_ref=1 / me_range=48 / chroma_me=1 / trellis=2 / 8x8dct=1 / cqm=0 / deadzone=21,11 / fast_pskip=0 / chroma_qp_offset=-2 / threads=12 / sliced_threads=0 / nr=0 / decimate=1 / interlaced=0 / constrained_intra=0 / bframes=6 / b_pyramid=2 / b_adapt=2 / b_bias=0 / direct=3 / weightb=1 / open_gop=0 / weightp=2 / keyint=250 / keyint_min=23 / scenecut=40 / intra_refresh=0 / rc_lookahead=60 / rc=2pass / mbtree=1 / bitrate=12568 / ratetol=1.0 / qcomp=0.70 / qpmin=0 / qpmax=69 / qpstep=4 / cplxblur=20.0 / qblur=0.5 / vbv_maxrate=40000 / vbv_bufsize=30000 / nal_hrd=none / ip_ratio=1.40 / aq=1:0.90
Language : English

Audio #1
ID : 2
Format : AC-3
Format/Info : Audio Coding 3
Mode extension : CM (complete main)
Codec ID : A_AC3
Duration : 1h 46mn
Bit rate mode : Constant
Bit rate : 384 Kbps
Channel(s) : 6 channels
Channel positions : Front: L C R, Side: L R, LFE
Sampling rate : 48.0 KHz
Bit depth : 16 bits
Compression mode : Lossy
Stream size : 293 MiB (3%)
Title : MVO R5
Language : Russian

Audio #2
ID : 3
Format : AC-3
Format/Info : Audio Coding 3
Mode extension : CM (complete main)
Codec ID : A_AC3
Duration : 1h 46mn
Bit rate mode : Constant
Bit rate : 384 Kbps
Channel(s) : 6 channels
Channel positions : Front: L C R, Side: L R, LFE
Sampling rate : 48.0 KHz
Bit depth : 16 bits
Compression mode : Lossy
Stream size : 293 MiB (3%)
Title : Original
Language : English

Text
ID : 4
Format : UTF-8
Codec ID : S_TEXT/UTF8
Codec ID/Info : UTF-8 Plain Text
Language : Russian
Свернуть
_________________
Изображение
Не в сети
Профиль  
 Добавлено: 2011-07-29 18:43 (спустя 1 день 22 часа)
Кинокомментатор
Аватара пользователя
Стаж: 9 лет 1 месяц
Сообщений: 1332
Лайков: 54
жарёха!) хочу хочу хочу!)

Добавлено спустя 42 минуты:
а чё реально дубляжа не будет?:(
_________________
Я ВКонтакте
Не в сети
Профиль  
 Добавлено: 2011-07-29 21:34 (спустя 2 часа 51 минута)
Кинокомментатор
Аватара пользователя
Стаж: 9 лет 1 месяц
Сообщений: 1332
Лайков: 54
это крутое кино! это человек, которому можно подражать! И Рей Стивенсон, передал всё очень верно…
я «выслушал» из этого фильма не мало умных мыслей, не мало умных фраз… то что настоящий бизнесмен не станет вводить в оборот свои деньги, то что наглость – это путь к тому что ты хочешь… это реально классный фильм!
Такая вот система в США была… а они ещё про нашу коррупцию, что то говорят:) молчали бы:)
С женщинами тоже в кино всё хорошо, всё по делу, ушла жена… мужчина просто нашёл новую!)
Фильм держал на всём протяжение! Просто нет желания отвернуться, просто нет желания залезть в контакт, пообщаться с кем ни будь или ещё что то в этом духе…
Фильму твёрдая 9ка:) и то лишь по тому что 10, это почти невозможно!) ну даже 9,5))) и это кино идёт в список моих любимых:)
_________________
Я ВКонтакте
Не в сети
Профиль  
 Добавлено: 2011-09-07 09:31 (спустя 1 месяц 8 дней)
Аватара пользователя
Стаж: 7 лет 11 месяцев
Возраст: 26
Сообщений: 735
Спасибок: 694
Лайков: 3
Смело могу сказать, что это самое лучшее, что я видел из фильмов, вышедших в последнее время!
Во-первых, обожаю фильмы про мафию, но этот фильм другой) Здесь итальянцы - "Уопс", а ирландцы - молодцы!)
Во-вторых, фильм просто держит тебя до конца, не давая отодвинуть глаза от экрана, вдруг пропустишь что-то, ведь игра актеров прекрасна. Такой магнетизм фильма редко встретишь!)
Философия героя великолепна, мысли гениальны, шутки смешны, все события переживаешь как будто сам (до сих пор нахожусь под действием эмоций от фильма).
Фильму ставлю твердую 10 из 10, такие фильмы нужно смотреть обязательно)
_________________
Не можешь взять аргументами? До##ись до орфографии!
Изображение
Не в сети
Профиль  
Начать новую темуОтветить на тему  [ Сообщений: 4 ] 
Вы не можете начинать темы
Вы не можете отвечать на сообщения
Вы не можете редактировать свои сообщения
Вы не можете удалять свои сообщения