Правила форума

  • В этом разделе создание новых тем Запрещено.
  • Для создания новых тем пользуйтесь Корневым разделом DVD и HD фильмы.
Начать новую темуОтветить на тему  [ 1 сообщение ] 
Торрент файл
Размер: 10.13 GB • Зарегистрирован: 1 год 11 месяцев • Статус: Проверено
Скачан: 556 раз • Желающих скачать: 0 • Поблагодарили: 121 раз
 Раздают: 1  |  33 KB/s  ]   Качают: 0  |  0 KB/s  ] 
Сообщения
 Добавлено: 2014-12-20 14:54
DVD Release Group
Аватара пользователя
Стаж: 7 лет 1 месяц
Сообщений: 3541
Спасибок: 246633
Лайков: 1016
Исчезнувшая

Gone Girl


Изображение


Год выпуска: 2014
Страна: США
Жанр: Триллер, драма, детектив
Продолжительность: 02:29:15
Перевод: Профессиональный (полное дублирование)
Субтитры: Русские, украинские, английские
Режиссер: Дэвид Финчер
В ролях: Розамунд Пайк, Бен Аффлек, Нил Патрик Харрис, Мисси Пайл, Скут МакНэйри, Кэрри Кун, Тайлер Перри, Ли Норрис, Бойд Холбрук, Патрик Фьюджит
Описание: Все было готово для празднования пятилетнего юбилея супружеской жизни, когда вдруг необъяснимо пропал один из виновников торжества. Остались следы борьбы в доме, кровь, которую явно пытались стереть, - и цепочка «ключей» в игре под названием «охота за сокровищами»; красивая, умная и невероятно изобретательная жена ежегодно устраивала ее для своего обожаемого мужа. И похоже, что эти «ключи» - размещенные ею тут и там странные записки и не менее странные безделушки - дают единственный шанс пролить свет на судьбу исчезнувшей. Вот только не придется ли «охотнику» в процессе поиска раскрыть миру и пару-тройку собственных малосимпатичных тайн?
Изображение
Качество: BDRip 1080p
Формат: MKV
Видео кодек: H.264
Аудио кодек: AC3, DTS
Видео: 1920x800 23.98fps 6555kbps
Аудио:
Аудио Rus: AC3 48kHz 6ch 448kbps
Аудио Rus: DTS 48kHz 6ch 768kbps
Аудио Ukr: AC3 48kHz 6ch 448kbps
Аудио Eng: DTS 48kHz 6ch 1510kbps
"MediaInfo"
Формат : Matroska
Версия формата : Version 2
Размер файла : 10,1 Гбайт
Продолжительность : 2 ч. 29 м.
Общий поток : 9728 Кбит/сек
Название фильма : Исчезнувшая.2014.Rip by: ollan
Дата кодирования : UTC 2014-12-20 10:36:44
Программа кодирования : mkvmerge v5.6.0 ('Kenya Kane') built on May 27 2012 16:44:04
Библиотека кодирования : libebml v1.2.3 + libmatroska v1.3.0

Видео
Идентификатор : 1
Формат : AVC
Формат/Информация : Advanced Video Codec
Профиль формата : High@L4.1
Параметр CABAC формата : Да
Параметр ReFrames формата : 5 кадров
Идентификатор кодека : V_MPEG4/ISO/AVC
Продолжительность : 2 ч. 29 м.
Битрейт : 6555 Кбит/сек
Ширина : 1920 пикселей
Высота : 800 пикселей
Соотношение сторон : 2,40:1
Режим частоты кадров : Постоянный
Частота кадров : 23,976 кадра/сек
Цветовое пространство : YUV
Субдискретизация насыщенности : 4:2:0
Битовая глубина : 8 бит
Тип развёртки : Прогрессивная
Бит/(Пиксели*Кадры) : 0.178
Размер потока : 6,62 Гбайт (65%)
Библиотека кодирования : x264 core 125 r2200 999b753
Настройки программы : cabac=1 / ref=5 / deblock=1:-3:-3 / analyse=0x3:0x133 / me=umh / subme=11 / psy=1 / psy_rd=1.00:0.10 / mixed_ref=1 / me_range=32 / chroma_me=1 / trellis=2 / 8x8dct=1 / cqm=0 / deadzone=21,11 / fast_pskip=0 / chroma_qp_offset=-3 / threads=12 / lookahead_threads=2 / sliced_threads=0 / nr=0 / decimate=0 / interlaced=0 / bluray_compat=0 / constrained_intra=0 / bframes=9 / b_pyramid=2 / b_adapt=2 / b_bias=0 / direct=3 / weightb=1 / open_gop=0 / weightp=2 / keyint=240 / keyint_min=23 / scenecut=40 / intra_refresh=0 / rc_lookahead=40 / rc=2pass / mbtree=1 / bitrate=6555 / ratetol=1.0 / qcomp=0.60 / qpmin=0 / qpmax=69 / qpstep=4 / cplxblur=20.0 / qblur=0.5 / ip_ratio=1.40 / aq=1:1.00
Язык : English
Default : Да
Forced : Нет

Аудио #1
Идентификатор : 2
Формат : AC-3
Формат/Информация : Audio Coding 3
Расширение режима : CM (complete main)
Параметр Endianness формата : Big
Идентификатор кодека : A_AC3
Продолжительность : 2 ч. 29 м.
Вид битрейта : Постоянный
Битрейт : 448 Кбит/сек
Каналы : 6 каналов
Расположение каналов : Front: L C R, Side: L R, LFE
Частота : 48,0 КГц
Битовая глубина : 16 бит
Метод сжатия : С потерями
Размер потока : 478 Мбайт (5%)
Заголовок : Дублированный (Лицензия)
Язык : Russian
Default : Да
Forced : Нет

Аудио #2
Идентификатор : 3
Формат : DTS
Формат/Информация : Digital Theater Systems
Режим : 16
Параметр Endianness формата : Big
Идентификатор кодека : A_DTS
Продолжительность : 2 ч. 29 м.
Вид битрейта : Постоянный
Битрейт : 768 Кбит/сек
Каналы : 6 каналов
Расположение каналов : Front: L C R, Side: L R, LFE
Частота : 48,0 КГц
Битовая глубина : 24 бит
Метод сжатия : С потерями
Размер потока : 819 Мбайт (8%)
Заголовок : Дублированный (Лицензия)
Язык : Russian
Default : Нет
Forced : Нет

Аудио #3
Идентификатор : 4
Формат : AC-3
Формат/Информация : Audio Coding 3
Расширение режима : CM (complete main)
Параметр Endianness формата : Big
Идентификатор кодека : A_AC3
Продолжительность : 2 ч. 29 м.
Вид битрейта : Постоянный
Битрейт : 448 Кбит/сек
Каналы : 6 каналов
Расположение каналов : Front: L C R, Side: L R, LFE
Частота : 48,0 КГц
Битовая глубина : 16 бит
Метод сжатия : С потерями
Размер потока : 478 Мбайт (5%)
Заголовок : Дублированный (Лицензия)
Язык : Ukrainian
Default : Нет
Forced : Нет

Аудио #4
Идентификатор : 5
Формат : DTS
Формат/Информация : Digital Theater Systems
Профиль формата : ES
Режим : 16
Параметр Endianness формата : Big
Идентификатор кодека : A_DTS
Продолжительность : 2 ч. 29 м.
Вид битрейта : Постоянный
Битрейт : 1509 Кбит/сек
Каналы : 6 каналов
Расположение каналов : Front: L C R, Side: L R, LFE
Частота : 48,0 КГц
Битовая глубина : 24 бит
Метод сжатия : С потерями
Размер потока : 1,57 Гбайт (16%)
Язык : English
Default : Нет
Forced : Нет

Текст #1
Идентификатор : 6
Формат : UTF-8
Идентификатор кодека : S_TEXT/UTF8
Идентификатор кодека/Информация : UTF-8 Plain Text
Заголовок : Full
Язык : Russian
Default : Нет
Forced : Нет

Текст #2
Идентификатор : 7
Формат : UTF-8
Идентификатор кодека : S_TEXT/UTF8
Идентификатор кодека/Информация : UTF-8 Plain Text
Заголовок : Full
Язык : Ukrainian
Default : Нет
Forced : Нет

Текст #3
Идентификатор : 8
Формат : UTF-8
Идентификатор кодека : S_TEXT/UTF8
Идентификатор кодека/Информация : UTF-8 Plain Text
Заголовок : Full
Язык : English
Default : Нет
Forced : Нет

Меню
00:00:00.000 : en:Chapter 01
00:03:27.957 : en:Chapter 03
00:06:57.834 : en:Chapter 05
00:08:19.540 : en:Chapter 07
00:11:58.592 : en:Chapter 09
00:15:01.483 : en:Chapter 11
00:18:13.509 : en:Chapter 13
00:19:56.737 : en:Chapter 15
00:21:43.093 : en:Chapter 17
00:23:53.849 : en:Chapter 19
00:28:34.879 : en:Chapter 21
00:31:32.515 : en:Chapter 23
00:34:39.077 : en:Chapter 25
00:40:51.198 : en:Chapter 27
00:44:37.383 : en:Chapter 29
00:46:57.814 : en:Chapter 31
00:49:19.706 : en:Chapter 33
00:54:13.333 : en:Chapter 35
01:00:06.686 : en:Chapter 37
01:03:16.209 : en:Chapter 39
01:06:08.714 : en:Chapter 41
01:12:56.997 : en:Chapter 43
01:15:13.008 : en:Chapter 45
01:19:54.456 : en:Chapter 47
01:21:56.119 : en:Chapter 49
01:27:24.155 : en:Chapter 51
01:28:12.537 : en:Chapter 53
01:33:28.561 : en:Chapter 55
01:39:34.510 : en:Chapter 57
01:46:26.713 : en:Chapter 59
01:50:46.514 : en:Chapter 61
01:56:40.618 : en:Chapter 63
01:59:06.097 : en:Chapter 65
02:02:23.127 : en:Chapter 67
02:05:35.069 : en:Chapter 69
02:12:30.817 : en:Chapter 71
02:16:12.789 : en:Chapter 73
02:19:56.930 : en:Chapter 75
02:22:42.303 : en:Chapter 77
02:24:15.647 : en:Chapter 79
02:29:01.724 : en:Chapter 80
Свернуть

"Скриншоты"
Изображение
Изображение
Изображение
Изображение
Изображение
Изображение
Свернуть
Не в сети
Профиль  
Начать новую темуОтветить на тему  [ 1 сообщение ] 
Вы не можете начинать темы
Вы не можете отвечать на сообщения
Вы не можете редактировать свои сообщения
Вы не можете удалять свои сообщения