Правила форума

  • В этом разделе создание новых тем Запрещено.
  • Для создания новых тем пользуйтесь Корневым разделом DVD и HD фильмы.
Начать новую темуОтветить на тему  [ 1 сообщение ] 
Торрент файл
Размер: 8.04 GB • Зарегистрирован: 1 год 11 месяцев • Статус: Проверено
Скачан: 125 раз • Желающих скачать: 0 • Поблагодарили: 30 раз
 Раздают: 2  |  0 KB/s  ]   Качают: 0  |  0 KB/s  ] 
Сообщения
 Добавлено: 2014-12-20 16:39
Модератор
Аватара пользователя
Стаж: 5 лет 8 месяцев
Сообщений: 6281
Спасибок: 17335
Лайков: 1633
Исчезнувшая / Gone Girl

Изображение
Страна: США
Жанр: триллер, драма, детектив
Год выпуска: 2014
Продолжительность: 02:29:01
Перевод: Профессиональный дублированный [Лицензия]
Субтитры: Русские, Украинские, Английские
Режиссер: Дэвид Финчер
В ролях: Розамунд Пайк, Бен Аффлек, Нил Патрик Харрис, Мисси Пайл, Скут МакНэйри, Кэрри Кун, Тайлер Перри, Ли Норрис, Бойд Холбрук, Патрик Фьюджит, Эмили Ратажковски, Кейси Уилсон, Лола Керк, Дэвид Кленнон
Описание: Все было готово для празднования пятилетнего юбилея супружеской жизни, когда вдруг необъяснимо пропал один из виновников торжества. Остались следы борьбы в доме, кровь, которую явно пытались стереть, - и цепочка «ключей» в игре под названием «охота за сокровищами»; красивая, умная и невероятно изобретательная жена ежегодно устраивала ее для своего обожаемого мужа. И похоже, что эти «ключи» - размещенные ею тут и там странные записки и не менее странные безделушки - дают единственный шанс пролить свет на судьбу исчезнувшей. Вот только не придется ли «охотнику» в процессе поиска раскрыть миру и пару-тройку собственных малосимпатичных тайн?
Изображение

Качество видео: BDRip (720p)
Формат видео: MKV
Видео: MPEG-4 AVC, 5000 Кбит/с, 1280x534
Аудио #1: Русский, DTS, 6 ch, 768 Кбит/с
Аудио #2: Украинский, AC3, 6 ch, 384 Кбит/с
Аудио #3: Aнглийский, DTS, 6 ch, 1510 Кбит/с
MediaInfo
Общее
Уникальный идентификатор : 251143301299683609764551940984062926230 (0xBCF070C00E2DE13496F59817801CDD96)
Полное имя : F:\Films\Ischeznuvshaja.2014.D.BDRip.720p.mkv
Формат : Matroska
Версия формата : Version 4 / Version 2
Размер файла : 8,04 Гбайт
Продолжительность : 2 ч. 29 м.
Общий поток : 7723 Кбит/сек
Дата кодирования : UTC 2014-12-19 12:53:35
Программа кодирования : mkvmerge v7.3.0 ('Nouages') 64bit built on Oct 22 2014 18:53:34
Библиотека кодирования : libebml v1.3.0 + libmatroska v1.4.1
DURATION : 02:24:10.059000000
NUMBER_OF_FRAMES : 4884
NUMBER_OF_BYTES : 15905523
_STATISTICS_WRITING_APP : mkvmerge v7.3.0 ('Nouages') 64bit built on Oct 22 2014 18:53:34
_STATISTICS_WRITING_DATE_UTC : 2014-12-19 12:53:35
_STATISTICS_TAGS : BPS DURATION NUMBER_OF_FRAMES NUMBER_OF_BYTES

Видео
Идентификатор : 1
Формат : AVC
Формат/Информация : Advanced Video Codec
Профиль формата : High@L4.1
Параметр CABAC формата : Да
Параметр ReFrames формата : 4 кадра
Идентификатор кодека : V_MPEG4/ISO/AVC
Продолжительность : 2 ч. 29 м.
Битрейт : 4999 Кбит/сек
Ширина : 1280 пикселей
Высота : 534 пикселя
Соотношение сторон : 2,40:1
Режим частоты кадров : Постоянный
Частота кадров : 23,976 кадра/сек
Цветовое пространство : YUV
Субдискретизация насыщенности : 4:2:0
Битовая глубина : 8 бит
Тип развёртки : Прогрессивная
Бит/(Пиксели*Кадры) : 0.305
Размер потока : 5,04 Гбайт (63%)
Библиотека кодирования : x264 core 142 r2431 ac76440
Настройки программы : cabac=1 / ref=2 / deblock=1:-3:-3 / analyse=0x3:0x113 / me=dia / subme=2 / psy=1 / psy_rd=1.00:0.15 / mixed_ref=1 / me_range=16 / chroma_me=1 / trellis=2 / 8x8dct=1 / cqm=0 / deadzone=21,11 / fast_pskip=1 / chroma_qp_offset=-1 / threads=12 / lookahead_threads=4 / sliced_threads=0 / nr=0 / decimate=1 / interlaced=0 / bluray_compat=0 / constrained_intra=0 / bframes=2 / b_pyramid=2 / b_adapt=2 / b_bias=0 / direct=1 / weightb=1 / open_gop=0 / weightp=2 / keyint=240 / keyint_min=22 / scenecut=40 / intra_refresh=0 / rc_lookahead=40 / rc=abr / mbtree=1 / bitrate=4999 / ratetol=1.0 / qcomp=0.60 / qpmin=0 / qpmax=69 / qpstep=4 / vbv_maxrate=62500 / vbv_bufsize=78125 / nal_hrd=none / filler=0 / ip_ratio=1.40 / aq=1:1.00
Язык : English
Default : Да
Forced : Да
Коэффициенты матрицы : BT.709

Аудио #1
Идентификатор : 2
Формат : DTS
Формат/Информация : Digital Theater Systems
Режим : 16
Параметр Endianness формата : Big
Идентификатор кодека : A_DTS
Продолжительность : 2 ч. 29 м.
Вид битрейта : Постоянный
Битрейт : 768 Кбит/сек
Каналы : 6 каналов
Расположение каналов : Front: L C R, Side: L R, LFE
Частота : 48,0 КГц
Битовая глубина : 24 бит
Метод сжатия : С потерями
Размер потока : 819 Мбайт (10%)
Язык : Russian
Default : Да
Forced : Да

Аудио #2
Идентификатор : 3
Формат : AC-3
Формат/Информация : Audio Coding 3
Расширение режима : CM (complete main)
Параметр Endianness формата : Big
Идентификатор кодека : A_AC3
Продолжительность : 2 ч. 29 м.
Вид битрейта : Постоянный
Битрейт : 448 Кбит/сек
Каналы : 6 каналов
Расположение каналов : Front: L C R, Side: L R, LFE
Частота : 48,0 КГц
Битовая глубина : 16 бит
Метод сжатия : С потерями
Размер потока : 478 Мбайт (6%)
Язык : Ukrainian
Default : Нет
Forced : Нет

Аудио #3
Идентификатор : 4
Формат : DTS
Формат/Информация : Digital Theater Systems
Профиль формата : ES
Режим : 16
Параметр Endianness формата : Big
Идентификатор кодека : A_DTS
Продолжительность : 2 ч. 29 м.
Вид битрейта : Постоянный
Битрейт : 1509 Кбит/сек
Каналы : 6 каналов
Расположение каналов : Front: L C R, Side: L R, LFE
Частота : 48,0 КГц
Битовая глубина : 24 бит
Метод сжатия : С потерями
Размер потока : 1,57 Гбайт (20%)
Язык : English
Default : Нет
Forced : Нет

Текст #1
Идентификатор : 5
Формат : PGS
Режим смешивания : zlib
Идентификатор кодека : S_HDMV/PGS
Идентификатор кодека/Информация : The same subtitle format used on BDs/HD-DVDs
Язык : Russian
Default : Нет
Forced : Нет

Текст #2
Идентификатор : 6
Формат : PGS
Режим смешивания : zlib
Идентификатор кодека : S_HDMV/PGS
Идентификатор кодека/Информация : The same subtitle format used on BDs/HD-DVDs
Язык : Russian
Default : Нет
Forced : Нет

Текст #3
Идентификатор : 7
Формат : PGS
Режим смешивания : zlib
Идентификатор кодека : S_HDMV/PGS
Идентификатор кодека/Информация : The same subtitle format used on BDs/HD-DVDs
Язык : Ukrainian
Default : Нет
Forced : Нет

Текст #4
Идентификатор : 8
Формат : PGS
Режим смешивания : zlib
Идентификатор кодека : S_HDMV/PGS
Идентификатор кодека/Информация : The same subtitle format used on BDs/HD-DVDs
Язык : English
Default : Нет
Forced : Нет

Меню
00:00:00.000 : en:00:00:00.000
00:03:27.958 : en:00:03:27.958
00:06:57.834 : en:00:06:57.834
00:08:19.541 : en:00:08:19.541
00:11:58.593 : en:00:11:58.593
00:15:01.484 : en:00:15:01.484
00:18:13.509 : en:00:18:13.509
00:19:56.737 : en:00:19:56.737
00:21:43.093 : en:00:21:43.093
00:23:53.849 : en:00:23:53.849
00:28:34.880 : en:00:28:34.880
00:31:32.516 : en:00:31:32.516
00:34:39.077 : en:00:34:39.077
00:40:51.199 : en:00:40:51.199
00:44:37.383 : en:00:44:37.383
00:46:57.815 : en:00:46:57.815
00:49:19.707 : en:00:49:19.707
00:54:13.333 : en:00:54:13.333
01:00:06.686 : en:01:00:06.686
01:03:16.209 : en:01:03:16.209
01:06:08.715 : en:01:06:08.715
01:12:56.998 : en:01:12:56.998
01:15:13.008 : en:01:15:13.008
01:19:54.456 : en:01:19:54.456
01:21:56.120 : en:01:21:56.120
01:27:24.156 : en:01:27:24.156
01:28:12.537 : en:01:28:12.537
01:33:28.561 : en:01:33:28.561
01:39:34.510 : en:01:39:34.510
01:46:26.714 : en:01:46:26.714
01:50:46.515 : en:01:50:46.515
01:56:40.619 : en:01:56:40.619
01:59:06.097 : en:01:59:06.097
02:02:23.127 : en:02:02:23.127
02:05:35.069 : en:02:05:35.069
02:12:30.818 : en:02:12:30.818
02:16:12.790 : en:02:16:12.790
02:19:56.930 : en:02:19:56.930
02:22:42.304 : en:02:22:42.304
02:24:15.647 : en:02:24:15.647
Свернуть
Скриншоты
ИзображениеИзображение
Изображение
Свернуть
_________________
Изображение Изображение Изображение
Не в сети
Профиль  
Начать новую темуОтветить на тему  [ 1 сообщение ] 
Вы не можете начинать темы
Вы не можете отвечать на сообщения
Вы не можете редактировать свои сообщения
Вы не можете удалять свои сообщения