Правила форума

  • В этом разделе создание новых тем Запрещено.
  • Для создания новых тем пользуйтесь Корневым разделом DVD и HD фильмы.
Начать новую темуОтветить на тему  [ Сообщений: 8 ] 
Торрент файл
Размер: 11.34 GB • Зарегистрирован: 1 год 8 месяцев • Статус: Проверено
Скачан: 711 раз • Желающих скачать: 0 • Поблагодарили: 122 раза
 Раздают: 1  |  0 KB/s  ]   Качают: 0  |  0 KB/s  ] 
Сообщения
 Добавлено: 2015-03-10 06:11
DVD Release Group
Аватара пользователя
Стаж: 7 лет 1 месяц
Сообщений: 3548
Спасибок: 247042
Лайков: 1018
Исход: Цари и боги

Exodus: Gods and Kings


Изображение


Год выпуска: 2014
Страна: Великобритания, США, Испания
Жанр: Боевик, драма, приключения
Продолжительность: 02:30:20
Перевод: Профессиональный (полное дублирование)
Субтитры: Английские
Режиссер: Ридли Скотт
В ролях: Кристиан Бэйл, Джоэл Эдгертон, Джон Туртурро, Аарон Пол, Бен Мендельсон, Мария Вальверде, Сигурни Уивер, Бен Кингсли, Хиам Аббасс, Исаак Эндрюс
Описание: Ветхозаветная история о великом пророке Моисее и освобождении еврейского народа из египетского плена. Моисей появился на свет в те времена, когда фараон приказал убивать всех новорожденных мальчиков еврейского происхождения. Чтобы спасти его, мать положила малыша в корзину из тростника и отправила вниз по Нилу. Ребенка нашла дочь фараона, которая усыновила его и растила рядом с Рамзесом — будущим фараоном. Много лет спустя, став мужчиной, Моисей бежит из Египта, а затем возвращается туда по велению Господа, чтобы избавить свой народ от оков рабства…
ИзображениеИзображение
Качество: BDRip 1080p
Формат: MKV
Видео кодек: H.264
Аудио кодек: AC3, DTS
Видео: 1920x800 23.98fps 8902kbps
Аудио:
Аудио Rus: AC3 48kHz 6ch 384kbps
Аудио Eng: DTS 48kHz 6ch 1510kbps
"MediaInfo"
Формат : Matroska
Версия формата : Version 4 / Version 2
Размер файла : 11,3 Гбайт
Продолжительность : 2 ч. 30 м.
Общий поток : 10,8 Мбит/сек
Дата кодирования : UTC 2015-03-09 20:40:43
Программа кодирования : mkvmerge v7.7.0 ('Six Voices') 64bit built on Feb 28 2015 23:39:33
Библиотека кодирования : libebml v1.3.1 + libmatroska v1.4.2
DURATION : 02:30:14.464000000
NUMBER_OF_FRAMES : 281702
NUMBER_OF_BYTES : 432694272
_STATISTICS_WRITING_APP : mkvmerge v7.7.0 ('Six Voices') 64bit built on Feb 28 2015 23:39:33
_STATISTICS_WRITING_DATE_UTC : 2015-03-09 20:40:43
_STATISTICS_TAGS : BPS DURATION NUMBER_OF_FRAMES NUMBER_OF_BYTES

Видео
Идентификатор : 1
Формат : AVC
Формат/Информация : Advanced Video Codec
Профиль формата : High@L4.1
Параметр CABAC формата : Да
Параметр ReFrames формата : 5 кадров
Идентификатор кодека : V_MPEG4/ISO/AVC
Продолжительность : 2 ч. 30 м.
Битрейт : 8902 Кбит/сек
Ширина : 1920 пикселей
Высота : 800 пикселей
Соотношение сторон : 2,40:1
Режим частоты кадров : Постоянный
Частота кадров : 23,976 кадра/сек
Цветовое пространство : YUV
Субдискретизация насыщенности : 4:2:0
Битовая глубина : 8 бит
Тип развёртки : Прогрессивная
Бит/(Пиксели*Кадры) : 0.242
Размер потока : 9,12 Гбайт (80%)
Библиотека кодирования : x264 core 144 r2525 40bb568
Настройки программы : cabac=1 / ref=5 / deblock=1:-3:-3 / analyse=0x3:0x113 / me=umh / subme=8 / psy=1 / psy_rd=1.00:0.00 / mixed_ref=1 / me_range=16 / chroma_me=1 / trellis=1 / 8x8dct=1 / cqm=0 / deadzone=21,11 / fast_pskip=1 / chroma_qp_offset=-2 / threads=24 / lookahead_threads=4 / sliced_threads=0 / nr=0 / decimate=1 / interlaced=0 / bluray_compat=0 / constrained_intra=0 / bframes=3 / b_pyramid=2 / b_adapt=2 / b_bias=0 / direct=3 / weightb=1 / open_gop=0 / weightp=2 / keyint=240 / keyint_min=24 / scenecut=40 / intra_refresh=0 / rc_lookahead=50 / rc=2pass / mbtree=1 / bitrate=8902 / ratetol=1.0 / qcomp=0.60 / qpmin=0 / qpmax=69 / qpstep=4 / cplxblur=20.0 / qblur=0.5 / ip_ratio=1.40 / aq=1:1.00
Язык : English
Default : Да
Forced : Нет
DURATION : 02:30:20.178000000
NUMBER_OF_FRAMES : 216268
NUMBER_OF_BYTES : 10036160208
_STATISTICS_WRITING_APP : mkvmerge v7.7.0 ('Six Voices') 64bit built on Feb 28 2015 23:39:33
_STATISTICS_WRITING_DATE_UTC : 2015-03-09 20:40:43
_STATISTICS_TAGS : BPS DURATION NUMBER_OF_FRAMES NUMBER_OF_BYTES

Аудио #1
Идентификатор : 2
Формат : AC-3
Формат/Информация : Audio Coding 3
Расширение режима : CM (complete main)
Параметр Endianness формата : Big
Идентификатор кодека : A_AC3
Продолжительность : 2 ч. 30 м.
Вид битрейта : Постоянный
Битрейт : 384 Кбит/сек
Каналы : 6 каналов
Расположение каналов : Front: L C R, Side: L R, LFE
Частота : 48,0 КГц
Битовая глубина : 16 бит
Метод сжатия : С потерями
Размер потока : 413 Мбайт (4%)
Язык : Russian
Default : Да
Forced : Нет

Аудио #2
Идентификатор : 3
Формат : DTS
Формат/Информация : Digital Theater Systems
Режим : 16
Параметр Endianness формата : Big
Идентификатор кодека : A_DTS
Продолжительность : 2 ч. 30 м.
Вид битрейта : Постоянный
Битрейт : 1509 Кбит/сек
Каналы : 6 каналов
Расположение каналов : Front: L C R, Side: L R, LFE
Частота : 48,0 КГц
Битовая глубина : 24 бит
Метод сжатия : С потерями
Размер потока : 1,58 Гбайт (14%)
Язык : English
Default : Нет
Forced : Нет

Текст #1
Идентификатор : 4
Формат : UTF-8
Идентификатор кодека : S_TEXT/UTF8
Идентификатор кодека/Информация : UTF-8 Plain Text
Заголовок : SDH
Язык : English
Default : Нет
Forced : Нет

Текст #2
Идентификатор : 5
Формат : UTF-8
Идентификатор кодека : S_TEXT/UTF8
Идентификатор кодека/Информация : UTF-8 Plain Text
Язык : English
Default : Нет
Forced : Нет

Меню
00:00:00.000 : en:00:00:00.000
00:03:55.402 : en:00:03:55.402
00:06:51.995 : en:00:06:51.995
00:11:47.707 : en:00:11:47.707
00:14:29.452 : en:00:14:29.452
00:18:37.658 : en:00:18:37.658
00:22:15.834 : en:00:22:15.834
00:26:51.151 : en:00:26:51.151
00:30:31.288 : en:00:30:31.288
00:36:41.366 : en:00:36:41.366
00:40:48.321 : en:00:40:48.321
00:44:49.937 : en:00:44:49.937
00:48:47.800 : en:00:48:47.800
00:51:16.448 : en:00:51:16.448
00:54:22.217 : en:00:54:22.217
00:57:32.658 : en:00:57:32.658
01:00:31.169 : en:01:00:31.169
01:04:41.544 : en:01:04:41.544
01:06:49.047 : en:01:06:49.047
01:11:01.883 : en:01:11:01.883
01:16:53.692 : en:01:16:53.692
01:21:18.040 : en:01:21:18.040
01:24:30.357 : en:01:24:30.357
01:28:08.533 : en:01:28:08.533
01:30:54.157 : en:01:30:54.157
01:34:14.566 : en:01:34:14.566
01:37:20.543 : en:01:37:20.543
01:39:20.204 : en:01:39:20.204
01:42:40.321 : en:01:42:40.321
01:46:50.070 : en:01:46:50.070
01:49:02.661 : en:01:49:02.661
01:52:18.315 : en:01:52:18.315
01:57:29.876 : en:01:57:29.876
02:00:23.842 : en:02:00:23.842
02:05:41.325 : en:02:05:41.325
02:07:31.269 : en:02:07:31.269
02:13:38.469 : en:02:13:38.469
02:16:21.882 : en:02:16:21.882
02:19:39.997 : en:02:19:39.997
02:23:19.800 : en:02:23:19.800
Свернуть

"Скриншоты"
Изображение
Изображение
Изображение
Изображение
Изображение
Изображение
Свернуть
Не в сети
Профиль  
 Добавлено: 2015-03-10 08:55 (спустя 2 часа 44 минуты)
Top-seeder
Аватара пользователя
Стаж: 7 лет 6 месяцев
Возраст: 27
Сообщений: 2421
Спасибок: 455
Лайков: 14
rastor
подскажи.а по какому принципу новинки в 3Д выходят ?
просто жду Хоббита последнего в 3Д. Не пойму просто ,через сколько ждать в 3Д после выхода лицензии в HD :-D
Не в сети
Профиль  
 Добавлено: 2015-03-10 09:46 (спустя 50 минут)
Модератор
Аватара пользователя
Стаж: 7 лет 9 месяцев
Сообщений: 4521
Спасибок: 112849
Лайков: 583
MisterXaM
В 3d хоббит уже есть
Не в сети
Профиль  
 Добавлено: 2015-03-10 14:44 (спустя 4 часа)
Модератор
Аватара пользователя
Стаж: 5 лет 8 месяцев
Сообщений: 6281
Спасибок: 17333
Лайков: 1633

MisterXaM:

rastor
подскажи.а по какому принципу новинки в 3Д выходят ?
просто жду Хоббита последнего в 3Д. Не пойму просто ,через сколько ждать в 3Д после выхода лицензии в HD :-D
Хоббит в 3D
_________________
Изображение Изображение Изображение
Не в сети
Профиль  
 Добавлено: 2015-03-11 14:51 (спустя 1 день)
Top-seeder
Аватара пользователя
Стаж: 7 лет 6 месяцев
Возраст: 27
Сообщений: 2421
Спасибок: 455
Лайков: 14
вот ведь жопа то :-D :-D :-D
а че то привык смотреть всегда низ,прилепленные думал типо старье :-D
а нет ,тут не как HD разделе :men:
Не в сети
Профиль  
 Добавлено: 2015-03-13 18:51 (спустя 2 дня 3 часа)
Top-releaser
Аватара пользователя
Стаж: 6 лет 7 месяцев
Сообщений: 2078
Спасибок: 3230
Лайков: 9
Как фильм?
Не в сети
Профиль  
 Добавлено: 2015-03-13 22:04 (спустя 3 часа)
Стаж: 3 года 10 месяцев
Сообщений: 187
Лайков: 61
Сильный фильм, познавательный и поучительный, а также довольно таки волнительный.
Неужели это всё правда и так на самом деле всё и было?
Советую просмотру.
Не в сети
Профиль  
 Добавлено: 2015-03-21 21:06 (спустя 7 дней)
Бог Формулы-1
Аватара пользователя
Стаж: 8 лет
Сообщений: 306
Спасибок: 49
Лайков: 65

Mib333:

Неужели это всё правда и так на самом деле всё и было?
Нда, Моисей - главнокомандующий армии Египта. Такая интрига Андрюше Малахову даже и не снилась ...
Чё, пиндосы когда то неправду снимали?
Бэйлд понравился :)
Не в сети
Профиль  
Начать новую темуОтветить на тему  [ Сообщений: 8 ] 
Вы не можете начинать темы
Вы не можете отвечать на сообщения
Вы не можете редактировать свои сообщения
Вы не можете удалять свои сообщения