Правила форума

  • В этом разделе создание новых тем Запрещено.
  • Для создания новых тем пользуйтесь Корневым разделом DVD и HD фильмы.
Начать новую темуОтветить на тему  [ Сообщений: 6 ] 
Торрент файл
Размер: 21.29 GB • Зарегистрирован: 5 лет 4 месяца • Статус: Проверено
Скачан: 190 раз • Желающих скачать: 0 • Поблагодарили: 39 раз
 Раздают: 0  |  0 KB/s  ]   Качают: 0  |  0 KB/s  ] 
 Полного источника не было 2 года 7 месяцев 
Сообщения
 Добавлено: 2011-07-28 22:09
Модератор
Аватара пользователя
Стаж: 8 лет
Сообщений: 1991
Спасибок: 129863
Лайков: 20
Исходный код / Source Code


«Make every second count»



Изображение
Год выпуска: 2011
Страна: Изображение США, Изображение Франция
Жанр: фантастика, боевик, триллер, драма
Продолжительность:
01:33:12

Перевод: Профессиональный (полное дублирование) [лицензия] любительский (одноголосый, закадровый - zamez)
Cубтитры: русские (notabenoid), английские (полные; комментарии режиссера, сценариста и Джейка Джилленхола; комментарии профессора Сергея Гукова; комментарии Джейка Джилленхола)

Режиссер: Дункан Джонс
Сценарий: Бен Рипли
Продюсер: Марк Гордон, Филипп Руссле, Джордан Винн, Джеб Броди, Стюарт Фенеган
Оператор: Дон Бёрджесс
Композитор: Крис П. Бэйкон

В ролях:
Джейк Джилленхол (Colter Stevens), Мишель Монахэн (Christina Warren), Вера Фармига (Colleen Goodwin), Джеффри Райт (Dr. Rutledge), Майкл Арден (Derek Frost), Кэс Анвар (Hazmi), Расселл Питерс (Max Denoff), Брент Скэгфорд (George Troxel), Крэйг Томас (Gold Watch Executive), Гордон Мастен (Conductor), Сьюзэн Бэйн (Nurse), Паула Жан Хиксон (Coffee Mug Lady)
Дублёры: Михаил Тихонов (Colter Stevens) (Colter Stevens), Ирина Киреева (Christina Warren) (Christina Warren), Елена Ивасишина (Colleen Goodwin) (Colleen Goodwin), Дмитрий Полонский (Dr. Rutledge) (Dr. Rutledge), Прохор Чеховской (Derek Frost) (Derek Frost), Всеволод Кузнецов (Hazmi) (Hazmi), Диомид Виноградов (Max Denoff) (Max Denoff), Иван Жарков (George Troxel) (George Troxel), Алексей Костричкин (College Student) (College Student), Наталья Грачева

Описание: Герой фильма - солдат, который оказывается в теле некоего человека, и вынужден постоянно переживать чудовищный взрыв поезда, пока не поймёт, кто его устроил.


Изображение: 7.945 (21 045)
Изображение: 7.70 (50 725)

MPAA: Изображение - Детям до 13 лет просмотр не желателен

Доп. Информация

Бюджет: $32 000 000
Сборы в США: $54 712 227
Сборы в России: $5 050 940
Сборы в мире: $123 278 618
Мировая премьера: 11 марта 2011

Свернуть



Качество: BDRemux 1080p R5

Формат: MKV
Видео кодек: H.264
Аудио кодек: AC3; DTS-HD MA

Видео: H.264; High@L4.1; 1920x1080 (1.78:1); ~27234 kbps; 23.976 fps
Аудио#1: Русский (Дубляж); AC3; CBR 448 kbps; 6 ch; 48 kHz
Аудио#2: Русский (VO; zamez); AC3; CBR 384 kbps; 6 ch; 48 kHz
Аудио#3: Английский; DTS-HD MA; 3781 kbps; 6 ch; 48 kHz; 24-bit (DTS Core: 5.1 / 48 kHz / 1509 kbps / 24-bit)
Аудио#4: Английский (Комментарии - режиссер, сценарист, Jake Gyllenhaal); AC3; CBR 192 kbps; 2 ch; 48 kHz
Формат субтитров: softsub (SRT)
Изображение


Знаете ли Вы, что...
  • Песня, которая стоит на звонке у Кристины - Chesney Hawkes - «The One and Only», она же играет на будильнике у Сэма в «Луне 2112». Режиссёр обоих фильмов - Дункан Джонс.
  • На главную роль рассматривался Тофер Грэйс.
  • Примечательно, что отца капитана Колтера Стивенса озвучивает Скотт Бакула – актер, известный главной ролью в сериале «Квантовый скачок», что был снят на ту же тему, и основные стилистические элементы которого, в точности повторяют, основные стилистические элементы «Исходного кода».
Свернуть
MediaInfo
General
Unique ID : 222867557533652967276412597996134225613 (0xA7AABAF2E2E432FFB7700D3DBCCE56CD)
Complete name : \Source.Code.2011.BDRemux.1080p.AVC.DTS-HD.MA.Rus.Eng.Comments.Subs.mkv
Format : Matroska
File size : 21.3 GiB
Duration : 1h 33mn
Overall bit rate : 32.7 Mbps
Encoded date : UTC 2011-07-28 07:49:05
Writing application : mkvmerge v4.0.0 ('The Stars were mine') built on Jun 6 2010 16:18:42
Writing library : libebml v1.0.0 + libmatroska v1.0.0


Video
ID : 1
Format : AVC
Format/Info : Advanced Video Codec
Format profile : High@L4.1
Format settings, CABAC : Yes
Format settings, ReFrames : 2 frames
Codec ID : V_MPEG4/ISO/AVC
Duration : 1h 33mn
Bit rate mode : Variable
Bit rate : 29.5 Mbps
Width : 1 920 pixels
Height : 1 080 pixels
Display aspect ratio : 16:9
Frame rate : 23.976 fps
Color space : YUV
Chroma subsampling : 4:2:0
Bit depth : 8 bits
Scan type : Progressive
Bits/(Pixel*Frame) : 0.593
Stream size : 19.2 GiB (90%)
Title : Исходный код/Source Code - by Juicy_J - H.264; High@L4.1; 1920x1080 (1.78:1); ~27234 kbps; 23.976 fps
Language : English


Audio #1
ID : 2
Format : AC-3
Format/Info : Audio Coding 3
Mode extension : CM (complete main)
Codec ID : A_AC3
Duration : 1h 33mn
Bit rate mode : Constant
Bit rate : 448 Kbps
Channel(s) : 6 channels
Channel positions : Front: L C R, Side: L R, LFE
Sampling rate : 48.0 KHz
Bit depth : 16 bits
Compression mode : Lossy
Stream size : 299 MiB (1%)
Title : Русский (Дубляж); AC3; CBR 448 kbps; 6 ch; 48 kHz
Language : Russian


Audio #2
ID : 3
Format : AC-3
Format/Info : Audio Coding 3
Mode extension : CM (complete main)
Codec ID : A_AC3
Duration : 1h 33mn
Bit rate mode : Constant
Bit rate : 384 Kbps
Channel(s) : 6 channels
Channel positions : Front: L C R, Side: L R, LFE
Sampling rate : 48.0 KHz
Bit depth : 16 bits
Compression mode : Lossy
Stream size : 256 MiB (1%)
Title : Русский (AVO; zamez); AC3; CBR 384 kbps; 6 ch; 48 kHz
Language : Russian


Audio #3
ID : 4
Format : DTS
Format/Info : Digital Theater Systems
Format profile : MA / Core
Codec ID : A_DTS
Duration : 1h 33mn
Bit rate mode : Variable
Bit rate : 1 561 Kbps / 1 510 Kbps
Channel(s) : 6 channels
Channel positions : Front: L C R, Side: L R, LFE
Sampling rate : 48.0 KHz
Bit depth : 24 bits
Compression mode : Lossless / Lossy
Title : Английский; DTS-HD MA; 3781 kbps; 6 ch; 48 kHz; 24-bit (DTS Core: 5.1 / 48 kHz / 1509 kbps / 24-bit)
Language : English


Audio #4
ID : 5
Format : AC-3
Format/Info : Audio Coding 3
Format profile : Dolby Digital
Mode extension : CM (complete main)
Codec ID : A_AC3
Duration : 1h 33mn
Bit rate mode : Constant
Bit rate : 192 Kbps
Channel(s) : 2 channels
Channel positions : Front: L R
Sampling rate : 48.0 KHz
Bit depth : 16 bits
Compression mode : Lossy
Stream size : 128 MiB (1%)
Title : Английский (Комментарии - режиссер, сценарист, Jake Gyllenhaal); AC3; CBR 192 kbps; 2 ch; 48 kHz
Language : English


Text #1
ID : 6
Format : UTF-8
Codec ID : S_TEXT/UTF8
Codec ID/Info : UTF-8 Plain Text
Title : Русские (notabenoid)
Language : Russian


Text #2
ID : 7
Format : UTF-8
Codec ID : S_TEXT/UTF8
Codec ID/Info : UTF-8 Plain Text
Title : Английские
Language : English


Text #3
ID : 8
Format : UTF-8
Codec ID : S_TEXT/UTF8
Codec ID/Info : UTF-8 Plain Text
Title : Английские (Комментарии - режиссер, сценарист, Jake Gyllenhaal)
Language : English


Text #4
ID : 9
Format : UTF-8
Codec ID : S_TEXT/UTF8
Codec ID/Info : UTF-8 Plain Text
Title : Английские (Комментарии - профессор Сергей Гуков)
Language : English


Text #5
ID : 10
Format : UTF-8
Codec ID : S_TEXT/UTF8
Codec ID/Info : UTF-8 Plain Text
Title : Английские (Комментарии - Jake Gyllenhaal)
Language :
Свернуть
Скриншоты

Изображение
Изображение
Изображение
Изображение
Свернуть

_________________
Себе ты можешь не качать, но раздавать другим обязан!
Не в сети
Профиль  
 Добавлено: 2011-07-29 09:04 (спустя 10 часов)
Модератор
Аватара пользователя
Стаж: 8 лет
Сообщений: 1991
Спасибок: 129863
Лайков: 20
Смотрел вчера. Шикарный фильм в хорошем качестве. Замечательный сюжет и неожиданная развязка.
_________________
Себе ты можешь не качать, но раздавать другим обязан!
Не в сети
Профиль  
 Добавлено: 2011-07-29 19:41 (спустя 10 часов)
Ацкий сотона
Аватара пользователя
Стаж: 8 лет 10 месяцев
Возраст: 28
Сообщений: 819
Спасибок: 12
Лайков: 1
Завидую ... А я вот пошёл в кино с друзьями , они посмотрели первые 20 минут , решили что отстой и ушли и я под всеобщим давлением ушёл :(
В общем теперь у меня есть этот фильм в хорошем качестве и я ненавижу своих друзей :-D
_________________
ИзображениеИзображениеИзображениеИзображениеИзображение
Не в сети
Профиль  
 Добавлено: 2011-07-31 00:39 (спустя 1 день 4 часа)
Кинокомментатор
Аватара пользователя
Стаж: 9 лет 1 месяц
Сообщений: 1332
Лайков: 54
х?я! х?я! я в шоке от концовочки!!!
Кто не смотрел спойлер не открывать!!!
Cкрытый текст
как так в конце он того мужика из поезда просто заменил собой!??? тыщу человек спас, а сам у мужика жизнь забрал!?? ну может быть следущий теракт перетащит этого в новое тело!? ппц!
Свернуть
кино класс! интересное) неожиданное) красивое) мммм прям:) посмотреть стоит точно:) любовная история:) боевик!) фильм для парня с девушкой подмышкой:)
фильму 8 твёрдо!) но с концовочкой мб и перебор:)
_________________
Я ВКонтакте
Не в сети
Профиль  
 Добавлено: 2011-07-31 19:04 (спустя 18 часов)
Ацкий сотона
Аватара пользователя
Стаж: 8 лет 10 месяцев
Возраст: 28
Сообщений: 819
Спасибок: 12
Лайков: 1
Не ну фильм однозначно стоит посмотреть . Что-то новое + снято неплохо , да и просто идея интересна . В общем фильм на 4+ .
P.S. Ч теперь буду по-чаще ремиксы качать , как никак свой 3 терабайт сделал :-[
_________________
ИзображениеИзображениеИзображениеИзображениеИзображение
Не в сети
Профиль  
 Добавлено: 2011-08-09 00:16 (спустя 8 дней)
Аватара пользователя
Стаж: 8 лет
Сообщений: 140
Спасибок: 51
спасибо
_________________
Изображение 6 мB/s Изображение 600 kB/s
Изображение
Не в сети
Профиль  
Начать новую темуОтветить на тему  [ Сообщений: 6 ] 
Вы не можете начинать темы
Вы не можете отвечать на сообщения
Вы не можете редактировать свои сообщения
Вы не можете удалять свои сообщения