Правила форума

  • В этом разделе создание новых тем Запрещено.
  • Для создания новых тем пользуйтесь Корневым разделом DVD и HD фильмы.
Начать новую темуОтветить на тему  [ Сообщений: 17 ] 
Торрент файл
Размер: 4.37 GB • Зарегистрирован: 5 лет 4 месяца • Статус: Проверено
Скачан: 790 раз • Желающих скачать: 0 • Поблагодарили: 119 раз
 Раздают: 0  |  0 KB/s  ]   Качают: 0  |  0 KB/s  ] 
 Полного источника не было 8 месяцев 
Сообщения
 Добавлено: 2011-08-01 22:55
Top-releaser
Аватара пользователя
Стаж: 8 лет 7 месяцев
Сообщений: 1286
Спасибок: 3420
Лайков: 7
Исходный код
Source Code

Изображение


Год выпуска: 2011
Страна: США, Франция
Жанр: фантастика, боевик, триллер, драма
Продолжительность: 01:33:13
Перевод: Профессиональный (дубляж)

Режиссёр: Дункан Джонс
В ролях: Джейк Джилленхол, Мишель Монахэн, Вера Фармига, Джеффри Райт, Майкл Арден, Кэс Анвар, Расселл Питерс, Бренд Скафорд, Крэйг Томас, Гордон Мастен.
Описание: Герой фильма - солдат, который оказывается в теле некоего человека, и вынужден постоянно переживать чудовищный взрыв поезда, пока не поймёт, кто его устроил.
Изображение
MPAA: Изображение - Детям до 13 лет просмотр не желателен

Качество: BDRip
Формат: mkv
Видео кодек: x264
Аудио кодек: AC3 (Dolby Digital)
Видео: 1920x1080 (16:9), 23.976 fps, 6329 kbps
Аудио #1: 48 kHz, AC-3, 6 ch, 384 kbps [Профессиональный (дубляж)]
Изображение
Раздача: Изображение
Скриншоты
Изображение
Изображение
Изображение
Свернуть

MediaInfo
Общее
Уникальный идентификатор         : 224547252957845427465961099550642944373 (0xA8EE3A53BB423C70B45BEF5114603975)
Полное имя                       : E:\Видео\Source.Code.2011.BDRip.1080p.Rus.[RG.KINOvNINO].mkv
Формат                           : Matroska
Версия формата                   : Version 2
Размер файла                     : 4,37 Гбайт
Продолжительность                : 1 ч. 33 м.
Общий поток                      : 6709 Кбит/сек
Дата кодирования                 : UTC 2011-07-29 20:53:52
Программа кодирования            : mkvmerge v4.0.0 ('The Stars were mine') сборка от Jun  6 2010 16:18:42
Библиотека кодирования           : libebml v1.0.0 + libmatroska v1.0.0

Видео
Идентификатор                    : 1
Формат                           : AVC
Формат/Информация                : Advanced Video Codec
Профиль формата                  : High@L4.1
Параметр CABAC формата           : Да
Параметр ReFrames формата        : 4 кадра
Идентификатор кодека             : V_MPEG4/ISO/AVC
Продолжительность                : 1 ч. 33 м.
Битрейт                          : 6329 Кбит/сек
Ширина                           : 1920 пикс.
Высота                           : 1080 пикс.
Соотношение сторон               : 16:9
Частота кадров                   : 23,976 кадр/сек
Цветовое пространство            : YUV
Подвыборка цветности             : 4:2:0
Битовая глубина                  : 8 бит
Тип развёртки                    : Прогрессивная
Бит/(Пиксели*Кадры)              : 0.127
Размер потока                    : 4,03 Гбайт (92%)
Библиотека кодирования           : x264 core 116 r2037 f8ebd4a
Настройки программы              : cabac=1 / ref=4 / deblock=1:0:0 / analyse=0x3:0x133 / me=umh / subme=10 / psy=1 / psy_rd=1.00:0.10 / mixed_ref=1 / me_range=32 / chroma_me=1 / trellis=2 / 8x8dct=1 / cqm=0 / deadzone=21,11 / fast_pskip=0 / chroma_qp_offset=-3 / threads=12 / sliced_threads=0 / nr=0 / decimate=1 / interlaced=0 / bluray_compat=0 / constrained_intra=0 / bframes=5 / b_pyramid=2 / b_adapt=2 / b_bias=0 / direct=3 / weightb=1 / open_gop=0 / weightp=2 / keyint=250 / keyint_min=23 / scenecut=40 / intra_refresh=0 / rc_lookahead=60 / rc=2pass / mbtree=1 / bitrate=6329 / ratetol=1.0 / qcomp=0.60 / qpmin=0 / qpmax=69 / qpstep=4 / cplxblur=20.0 / qblur=0.5 / ip_ratio=1.40 / aq=1:1.00
Язык                             : English

Аудио
Идентификатор                    : 2
Формат                           : AC-3
Формат/Информация                : Audio Coding 3
Расширение режима                : CM (complete main)
Идентификатор кодека             : A_AC3
Продолжительность                : 1 ч. 33 м.
Вид битрейта                     : Постоянный
Битрейт                          : 384 Кбит/сек
Каналы                           : 6 каналов
Расположение каналов             : Front: L C R, Side: L R, LFE
Частота                          : 48,0 КГц
Битовая глубина                  : 16 бит
Метод сжатия                     : С потерями
Размер потока                    : 256 Мбайт (6%)
Язык                             : Russian

Текст #1
Идентификатор                    : 3
Формат                           : UTF-8
Идентификатор кодека             : S_TEXT/UTF8
Идентификатор кодека/Информация  : UTF-8 Plain Text
Язык                             : Russian

Текст #2
Идентификатор                    : 4
Формат                           : UTF-8
Идентификатор кодека             : S_TEXT/UTF8
Идентификатор кодека/Информация  : UTF-8 Plain Text
Язык                             : English
Свернуть


Последний раз редактировалось Shamman 2011-08-06 11:19, всего редактировалось 1 раз.
Не в сети
Профиль  
 Добавлено: 2011-08-03 19:55 (спустя 1 день 21 час)
Top-releaser
Аватара пользователя
Стаж: 8 лет 7 месяцев
Сообщений: 1286
Спасибок: 3420
Лайков: 7
Все бы релизы так раздавались, за 15 минут 8 Gb раздал))
Фильм хорош, на одном дыхании просмотрел.
Не в сети
Профиль  
 Добавлено: 2011-08-04 20:35 (спустя 1 день)
Аватара пользователя
Стаж: 6 лет 3 месяца
Возраст: 23
Сообщений: 389
Спасибок: 506
Лайков: 2
фильм сделан хорошо, но туповат :)
Не в сети
Профиль  
 Добавлено: 2011-08-06 11:21 (спустя 1 день 14 часов)
Top-releaser
Аватара пользователя
Стаж: 8 лет 7 месяцев
Сообщений: 1286
Спасибок: 3420
Лайков: 7
BonD Ага, а земля круглая но квадратная :-D
Не в сети
Профиль  
 Добавлено: 2011-08-08 00:14 (спустя 1 день 12 часов)
Top-seeder
Аватара пользователя
Стаж: 7 лет 6 месяцев
Возраст: 21
Сообщений: 74
Спасибок: 90
Блин фильм очень понравился!!!
Даже жалко в конце , что закончился!!!)))

Спасибо!!!
Не в сети
Профиль  
 Добавлено: 2011-08-10 23:16 (спустя 2 дня 23 часа)
Стаж: 8 лет 1 месяц
Сообщений: 28
Не понятно чёто.
Его душа пересилилась в другого человека - это раз.
И он написал смс девке это было прошлое время - это два.
Как он это сделал?Написал смс этой бабе в прошлое?))))
Исходный код ёпрст))
Не в сети
Профиль  
 Добавлено: 2011-08-12 17:23 (спустя 1 день 18 часов)
Top-releaser
Аватара пользователя
Стаж: 8 лет 7 месяцев
Сообщений: 1286
Спасибок: 3420
Лайков: 7
WOK Такое ощущение что ты фильм не смотрел))) в какое прошлое? и кто в кого переселился?
Не в сети
Профиль  
 Добавлено: 2011-08-15 18:13 (спустя 3 дня)
Аватара пользователя
Стаж: 7 лет 5 месяцев
Сообщений: 7
Фильм замечательный!
Одно смущает: что стало с парнем в тело которого он переселился?
Не в сети
Профиль  
 Добавлено: 2011-08-15 19:30 (спустя 1 час 16 минут)
Top-releaser
Аватара пользователя
Стаж: 8 лет 7 месяцев
Сообщений: 1286
Спасибок: 3420
Лайков: 7
Да с чего вы взяли, что кто-то куда-то переселился?
Не в сети
Профиль  
 Добавлено: 2011-08-25 23:17 (спустя 10 дней)
Аватара пользователя
Стаж: 6 лет 10 месяцев
Сообщений: 11
Фильмец улет автору респект и уважуха!!!! А кто не допетрил тому Fack :))))))
Не в сети
Профиль  
 Добавлено: 2011-08-28 10:01 (спустя 2 дня 10 часов)
Аватара пользователя
Стаж: 7 лет 6 месяцев
Возраст: 29
Сообщений: 52
Спасибок: 207
мда ( 160 - 500 КБ/с долго качать буду (( :bra_vo:
_________________
Приём 20813 Кбит/c
Отдача 17809 Кбит/c
Не в сети
Профиль  
 Добавлено: 2011-08-28 10:18 (спустя 16 минут)
Top-releaser
Аватара пользователя
Стаж: 8 лет 7 месяцев
Сообщений: 1286
Спасибок: 3420
Лайков: 7

lewabk:

мда ( 160 - 500 КБ/с долго качать буду (( :bra_vo:
Смени оператора, будешь качать быстрее :a_g_a:
Не в сети
Профиль  
 Добавлено: 2011-10-15 12:21 (спустя 1 месяц 18 дней)
Аватара пользователя
Стаж: 8 лет 1 месяц
Сообщений: 34
Спасибок: 7
Хороший фильм. Благодарю!
Не в сети
Профиль  
 Добавлено: 2011-12-12 22:55 (спустя 1 месяц 28 дней)
Аватара пользователя
Стаж: 7 лет 5 месяцев
Возраст: 29
Сообщений: 118
Спасибок: 3
Лайков: 2
:) Давно хотел посмотреть.
Не в сети
Профиль  
 Добавлено: 2012-01-04 17:49 (спустя 22 дня)
Стаж: 8 лет 1 месяц
Сообщений: 7
тупее только шрек
Не в сети
Профиль  
 Добавлено: 2012-01-04 18:35 (спустя 46 минут)
Top-releaser
Аватара пользователя
Стаж: 8 лет 7 месяцев
Сообщений: 1286
Спасибок: 3420
Лайков: 7

GeNa SoLoW:

тупее только шрек
Сними свой, раз такой умный :)
Не в сети
Профиль  
 Добавлено: 2013-06-13 18:56 (спустя 1 год 5 месяцев)
Аватара пользователя
Стаж: 8 лет 3 месяца
Сообщений: 14
смотрел вчерась по зомбопанели на СТС. захотелось есчё.
качаю . скорость 5 м\с +-чуток. дом ру 2 в одном .660р в месяц с кабельным тел. :ya_hoo_oo:
СКАЧАЛОСЬ за 20 мин.


Тема поднималась пользователем Shamman 2013-06-13 18:56.
Не в сети
Профиль  
Начать новую темуОтветить на тему  [ Сообщений: 17 ] 
Вы не можете начинать темы
Вы не можете отвечать на сообщения
Вы не можете редактировать свои сообщения
Вы не можете удалять свои сообщения