Правила форума

  • В этом разделе создание новых тем Запрещено.
  • Для создания новых тем пользуйтесь Корневым разделом DVD и HD фильмы.
Начать новую темуОтветить на тему  [ Сообщений: 5 ] 
Торрент файл
Размер: 10.14 GB • Зарегистрирован: 1 год 4 месяца • Статус: Проверено
Скачан: 250 раз • Желающих скачать: 0 • Поблагодарили: 62 раза
 Раздают: 2  |  0 KB/s  ]   Качают: 0  |  0 KB/s  ] 
Сообщения
 Добавлено: 2015-07-28 19:22
DVD Release Group
Аватара пользователя
Стаж: 7 лет 1 месяц
Сообщений: 3559
Спасибок: 247428
Лайков: 1020
Искатель воды

The Water Diviner


Изображение


Год выпуска: 2014
Страна: Австралия, Турция, США
Жанр: Драма, военный
Продолжительность: 01:51:10
Перевод: Профессиональный (полное дублирование)
Субтитры: Английские
Режиссер: Рассел Кроу
В ролях: Рассел Кроу, Джай Кортни, Ольга Куриленко, Изабель Лукас, Дэймон Херриман, Жаклин МакКензи, Джем Йылмаз, Йылмаз Эрдоган, Меган Гэйл, Райан Корр
Описание: Действие фильма разворачивается в 1919 году. Это история об австралийце, который отправляется на полуостров Галлиполи, где во время Первой мировой войны проходила ожесточенная битва, чтобы разыскать тела своих погибших сыновей. И неожиданно для себя он обретает надежду там, где и не мыслил ее найти.
Изображение Изображение
Качество: BDRip 1080p
Формат: MKV
Видео кодек: H.264
Аудио кодек: AC3, DTS
Видео: 1920x808 24fps 11.2Мбит/с
Аудио:
Аудио Rus: AC3 48kHz 6ch 384kbps
Аудио Eng: DTS 48kHz 6ch 1510kbps
"MediaInfo"
Формат : Matroska
Версия формата : Version 2
Размер файла : 10,1 Гбайт
Продолжительность : 1 ч. 51 м.
Общий поток : 13,1 Мбит/сек
Дата кодирования : UTC 2015-04-07 19:29:09
Программа кодирования : mkvmerge v6.2.0 ('Promised Land') built on Apr 28 2013 12:22:01
Библиотека кодирования : libebml v1.3.0 + libmatroska v1.4.0

Видео
Идентификатор : 1
Формат : AVC
Формат/Информация : Advanced Video Codec
Профиль формата : High@L4.1
Параметр CABAC формата : Да
Параметр ReFrames формата : 5 кадров
Идентификатор кодека : V_MPEG4/ISO/AVC
Продолжительность : 1 ч. 51 м.
Битрейт : 11,2 Мбит/сек
Ширина : 1920 пикселей
Высота : 808 пикселей
Соотношение сторон : 2,40:1
Режим частоты кадров : Постоянный
Частота кадров : 24,000 кадра/сек
Цветовое пространство : YUV
Субдискретизация насыщенности : 4:2:0
Битовая глубина : 8 бит
Тип развёртки : Прогрессивная
Бит/(Пиксели*Кадры) : 0.300
Размер потока : 8,47 Гбайт (84%)
Заголовок : X264-1080
Библиотека кодирования : x264 core 146 r2538 121396c
Настройки программы : cabac=1 / ref=5 / deblock=1:-3:-3 / analyse=0x3:0x113 / me=umh / subme=11 / psy=1 / psy_rd=1.05:0.00 / mixed_ref=1 / me_range=36 / chroma_me=1 / trellis=2 / 8x8dct=1 / cqm=0 / deadzone=6,6 / fast_pskip=0 / chroma_qp_offset=-2 / threads=12 / lookahead_threads=3 / sliced_threads=0 / nr=0 / decimate=0 / interlaced=0 / bluray_compat=0 / constrained_intra=0 / bframes=10 / b_pyramid=2 / b_adapt=2 / b_bias=0 / direct=3 / weightb=1 / open_gop=0 / weightp=2 / keyint=250 / keyint_min=24 / scenecut=40 / intra_refresh=0 / rc=2pass / mbtree=0 / bitrate=11166 / ratetol=1.0 / qcomp=0.80 / qpmin=0 / qpmax=69 / qpstep=4 / cplxblur=20.0 / qblur=0.5 / ip_ratio=1.10 / pb_ratio=1.10 / aq=1:0.60
Язык : English
Default : Да
Forced : Нет

Аудио #1
Идентификатор : 2
Формат : AC-3
Формат/Информация : Audio Coding 3
Расширение режима : CM (complete main)
Параметр Endianness формата : Big
Идентификатор кодека : A_AC3
Продолжительность : 1 ч. 51 м.
Вид битрейта : Постоянный
Битрейт : 384 Кбит/сек
Каналы : 6 каналов
Расположение каналов : Front: L C R, Side: L R, LFE
Частота : 48,0 КГц
Битовая глубина : 16 бит
Метод сжатия : С потерями
Размер потока : 337 Мбайт (3%)
Язык : Russian
Default : Да
Forced : Нет

Аудио #2
Идентификатор : 3
Формат : DTS
Формат/Информация : Digital Theater Systems
Режим : 16
Параметр Endianness формата : Big
Идентификатор кодека : A_DTS
Продолжительность : 1 ч. 51 м.
Вид битрейта : Постоянный
Битрейт : 1509 Кбит/сек
Каналы : 6 каналов
Расположение каналов : Front: L C R, Side: L R, LFE
Частота : 48,0 КГц
Битовая глубина : 24 бит
Метод сжатия : С потерями
Размер потока : 1,17 Гбайт (12%)
Заголовок : DTS 5.1
Язык : English
Default : Нет
Forced : Нет

Текст #1
Идентификатор : 4
Формат : UTF-8
Идентификатор кодека : S_TEXT/UTF8
Идентификатор кодека/Информация : UTF-8 Plain Text
Заголовок : English
Язык : English
Default : Нет
Forced : Нет

Текст #2
Идентификатор : 5
Формат : UTF-8
Идентификатор кодека : S_TEXT/UTF8
Идентификатор кодека/Информация : UTF-8 Plain Text
Заголовок : English (SDH)
Язык : English
Default : Нет
Forced : Нет

Меню
00:00:00.000 : en:00:00:00.000
00:05:15.500 : en:00:05:15.500
00:09:00.208 : en:00:09:00.208
00:13:08.208 : en:00:13:08.208
00:16:47.708 : en:00:16:47.708
00:21:29.000 : en:00:21:29.000
00:26:53.167 : en:00:26:53.167
00:31:16.208 : en:00:31:16.208
00:36:21.458 : en:00:36:21.458
00:40:11.875 : en:00:40:11.875
00:50:31.625 : en:00:50:31.625
00:57:19.958 : en:00:57:19.958
01:03:33.458 : en:01:03:33.458
01:07:55.792 : en:01:07:55.792
01:15:38.292 : en:01:15:38.292
01:19:05.250 : en:01:19:05.250
01:23:31.458 : en:01:23:31.458
01:30:25.292 : en:01:30:25.292
01:40:02.375 : en:01:40:02.375
01:45:05.000 : en:01:45:05.000
Свернуть

"Скриншоты"
Изображение
Изображение
Изображение
Изображение
Изображение
Свернуть
Не в сети
Профиль  
 Добавлено: 2015-07-28 21:55 (спустя 2 часа 33 минуты)
Аватара пользователя
Стаж: 7 лет 11 месяцев
Возраст: 29
Сообщений: 577
Спасибок: 3357
Лайков: 26
Тысяча чертей на первом скрине :)
Не в сети
Профиль  
 Добавлено: 2015-07-29 15:27 (спустя 17 часов)
Русские витязи
Аватара пользователя
Стаж: 6 лет 10 месяцев
Возраст: 30
Сообщений: 485
Лайков: 4

Bassplayer:

Тысяча чертей на первом скрине
:-D +1
Не в сети
Профиль  
 Добавлено: 2015-08-01 10:56 (спустя 2 дня 19 часов)
Кинокомментатор
Аватара пользователя
Стаж: 9 лет 1 месяц
Сообщений: 1332
Лайков: 54
интересное кино. и я бы не сказал, что затянутое) да актёрский состав очень хорош! так что приятного просмотра!) 7/10
Не в сети
Профиль  
 Добавлено: 2015-08-23 17:18 (спустя 22 дня)
Аватара пользователя
Стаж: 8 лет 3 месяца
Возраст: 75
Сообщений: 7134
Спасибок: 815
Лайков: 499
куриленько не признал сразу, богатая будет :-D
_________________
Best Vocal Trance - лучшие хиты всех времен>>>
Не в сети
Профиль  
Начать новую темуОтветить на тему  [ Сообщений: 5 ] 
Вы не можете начинать темы
Вы не можете отвечать на сообщения
Вы не можете редактировать свои сообщения
Вы не можете удалять свои сообщения