Правила форума

  • В этом разделе создание новых тем Запрещено.
  • Для создания новых тем пользуйтесь Корневым разделом DVD и HD фильмы.
Начать новую темуОтветить на тему  [ Сообщений: 2 ] 
Торрент файл
Размер: 7.76 GB • Зарегистрирован: 4 года 6 месяцев • Статус: Проверено
Скачан: 75 раз • Желающих скачать: 0 • Поблагодарили: 27 раз
 Раздают: 0  |  0 KB/s  ]   Качают: 0  |  0 KB/s  ] 
 Полного источника не было 1 год 
Сообщения
 Добавлено: 2012-05-14 22:12
Стаж: 4 года 8 месяцев
Возраст: 31
Сообщений: 4
Спасибок: 52
Лайков: 1
Искусственный разум / Artificial Intelligence: AI

Изображение


Год выпуска: 2001
Страна: США
Слоган: «Do not speak the seven-word activation code unless you mean it.»
Жанр: Фантастика, драма, приключения
Продолжительность: 02:25:51
Перевод: Профессиональный (дубляж) + оригинал
Субтитры: Русские (вшитые), Английские (вшитые)

Режиссёр: Стивен Спилберг / Steven Spielberg
В ролях: Хэйли Джоэл Осмент, Фрэнсис О`Коннор, Сэм Робардс, Джэйк Томас, Джуд Лоу, Уильям Херт, Кен Люн, Кларк Грегг, Кевин Суссман, Том Галлоп.
Описание: В будущем мире вырвавшегося из-под контроля глобального потепления и пугающих достижений науки, смертные живут бок о бок с удивительными и сложными роботами. Но когда продвинутый прототип робота-ребенка по имени Дэвид программируется на проявление бескорыстной любви, члены его человеческой семьи оказываются неготовыми к последствиям такого чувства.
Неожиданно Дэвид оказывается один в странном и опасном мире. С помощью уличного робота Дэвид пускается в поиски загадки своего собственного происхождения.
Рейтинг MPAA: Рейтинг PG-13 (Дети до 13 лет допускаются на фильм только с родителями)

Качество: BDrip
Формат: Matroska
Видео кодек: MPEG4 Video (H264)
Аудио кодек: AC3 (Dolby Digital)
Видео: 1920x1080 (16:9), 23.976 fps, 6340 kbps
Аудио #1: Русский: AC-3, 6 ch, 640 kbps (дубляж)
Аудио #2: Английский: AC-3, 6 ch, 640 kbps (оригинал)
Субтитры: Русские (вшитые), Английские (вшитые)
Скриншоты
Изображение
Изображение
Изображение
Свернуть

Знаете ли Вы, что...
Журнал Rolling Stone назвал картину Стивена Спилберга «подлинной работой настоящего кинематографиста».
Свернуть

MediaInfo
General
Unique ID : 198173155908920101514070945806996540659 (0x9516C2F292B32F7A8D6757950C3D0CF3)
Complete name : E:\Films\Artificial.Intelligence.AI.2001.BDRip.1080p.Rus.Eng.mkv
Format : Matroska
Format version : Version 2
File size : 7.76 GiB
Duration : 2h 25mn
Overall bit rate : 7 622 Kbps
Movie name : Искусственный разум / Artificial Intelligence: AI (2001)
Encoded date : UTC 2012-05-13 20:53:50
Writing application : mkvmerge v5.5.0 ('Healer') built on Apr 6 2012 21:43:24
Writing library : libebml v1.2.3 + libmatroska v1.3.0

Video
ID : 1
Format : AVC
Format/Info : Advanced Video Codec
Format profile : High@L4.1
Format settings, CABAC : Yes
Format settings, ReFrames : 4 frames
Codec ID : V_MPEG4/ISO/AVC
Duration : 2h 25mn
Bit rate : 6 340 Kbps
Width : 1 920 pixels
Height : 1 080 pixels
Display aspect ratio : 16:9
Frame rate : 23.976 fps
Color space : YUV
Chroma subsampling : 4:2:0
Bit depth : 8 bits
Scan type : Progressive
Bits/(Pixel*Frame) : 0.128
Stream size : 6.31 GiB (81%)
Title : Release by AlexKa
Writing library : x264 core 124 r2197 69a0443
Encoding settings : cabac=1 / ref=4 / deblock=1:0:0 / analyse=0x3:0x133 / me=umh / subme=10 / psy=1 / psy_rd=1.00:0.10 / mixed_ref=1 / me_range=32 / chroma_me=1 / trellis=2 / 8x8dct=1 / cqm=0 / deadzone=21,11 / fast_pskip=0 / chroma_qp_offset=-3 / threads=12 / sliced_threads=0 / nr=0 / decimate=0 / interlaced=0 / bluray_compat=0 / constrained_intra=0 / bframes=5 / b_pyramid=2 / b_adapt=2 / b_bias=0 / direct=3 / weightb=1 / open_gop=0 / weightp=2 / keyint=240 / keyint_min=23 / scenecut=40 / intra_refresh=0 / rc_lookahead=60 / rc=2pass / mbtree=1 / bitrate=6340 / ratetol=1.0 / qcomp=0.60 / qpmin=0 / qpmax=69 / qpstep=4 / cplxblur=20.0 / qblur=0.5 / ip_ratio=1.40 / aq=1:1.00
Language : English
Default : Yes
Forced : No

Audio #1
ID : 2
Format : AC-3
Format/Info : Audio Coding 3
Mode extension : CM (complete main)
Format settings, Endianness : Big
Codec ID : A_AC3
Duration : 2h 25mn
Bit rate mode : Constant
Bit rate : 640 Kbps
Channel(s) : 6 channels
Channel positions : Front: L C R, Side: L R, LFE
Sampling rate : 48.0 KHz
Bit depth : 16 bits
Compression mode : Lossy
Stream size : 668 MiB (8%)
Title : Rus
Language : Russian
Default : Yes
Forced : No

Audio #2
ID : 3
Format : AC-3
Format/Info : Audio Coding 3
Mode extension : CM (complete main)
Format settings, Endianness : Big
Codec ID : A_AC3
Duration : 2h 25mn
Bit rate mode : Constant
Bit rate : 640 Kbps
Channel(s) : 6 channels
Channel positions : Front: L C R, Side: L R, LFE
Sampling rate : 48.0 KHz
Bit depth : 16 bits
Compression mode : Lossy
Stream size : 668 MiB (8%)
Title : Eng
Language : English
Default : No
Forced : No

Text #1
ID : 4
Format : UTF-8
Codec ID : S_TEXT/UTF8
Codec ID/Info : UTF-8 Plain Text
Title : Rus
Language : Russian
Default : No
Forced : No

Text #2
ID : 5
Format : UTF-8
Codec ID : S_TEXT/UTF8
Codec ID/Info : UTF-8 Plain Text
Title : Eng
Language : English
Default : No
Forced : No

Menu
00:00:00.000 : en:Artificial Intelligence
00:07:09.971 : en:His Life is Merely Pending
00:10:12.654 : en:A Mecha Child
00:15:23.131 : en:Hide and Go Seek
00:18:31.319 : en:Laughter
00:21:42.301 : en:Imprinting Protocol
00:24:21.418 : en:Teddy, a Super-Toy
00:28:41.637 : en:Martin Comes Home
00:30:21.737 : en:The New Super-Toy
00:33:56.159 : en:A Classic Story
00:35:48.980 : en:Competition For Affection
00:39:57.604 : en:Mechas and Orgas
00:45:27.308 : en:Abandoned
00:53:46.432 : en:Gigolo Joe
00:57:45.837 : en:Unregistered Mecha Roundup
01:05:52.949 : en:Flesh Fair: A Celebration of Life
01:09:14.442 : en:"I'm a Boy"
01:17:48.581 : en:Journey Towards the Moon
01:22:28.902 : en:Rouge City
01:25:37.549 : en:Dr. Know
01:31:03.083 : en:"They Hate Us"
01:33:05.413 : en:Escape From Rouge City
01:35:07.285 : en:The City at the End of the World
01:37:55.745 : en:Special and Unique
01:43:43.634 : en:Brothers and Sisters
01:46:51.822 : en:David's Leap
01:49:21.305 : en:A Plea to the Blue Fairy
01:55:41.268 : en:Memories
02:01:33.912 : en:Back Home
02:07:08.204 : en:A Question of Happiness
02:11:42.186 : en:A Perfect Day
02:18:38.727 : en:End Credits

Свернуть


Последний раз редактировалось FUnoobs106 2012-05-15 11:57, всего редактировалось 2 раз(а).
Не в сети
Профиль  
 Добавлено: 2012-05-14 23:48 (спустя 1 час 36 минут)
Руководитель релиз-группы
Аватара пользователя
Стаж: 7 лет 4 месяца
Возраст: 31
Сообщений: 3407
Спасибок: 46729
Лайков: 5

FUnoobs106:

DVD5 (Custom)
это BDRip.1080p

Внимание: Для DVD и HD-разделов необходимы развернутые технические данные:
Для HD: Отчет BDInfo→ (после нажатия кнопки «scan bitrates» и окончания сканирования) или MediaInfo→ ( весь текст из режима view (вид) → text (текст).) (под спойлером)

Как все исправите, то сообщите пожалуйста мне или любому модератору видео, обязательно со ссылкой на релиз
Не в сети
Профиль  
Начать новую темуОтветить на тему  [ Сообщений: 2 ] 
Вы не можете начинать темы
Вы не можете отвечать на сообщения
Вы не можете редактировать свои сообщения
Вы не можете удалять свои сообщения