Правила форума

  • В этом разделе создание новых тем Запрещено.
  • Для создания новых тем пользуйтесь Корневым разделом DVD и HD фильмы.
Начать новую темуОтветить на тему  [ Сообщений: 4 ] 
Торрент файл
Размер: 9 GB • Зарегистрирован: 4 года 11 месяцев • Статус: Проверено
Скачан: 115 раз • Желающих скачать: 0 • Поблагодарили: 26 раз
 Раздают: 0  |  0 KB/s  ]   Качают: 0  |  0 KB/s  ] 
 Полного источника не было 1 год 11 месяцев 
Сообщения
 Добавлено: 2011-12-21 23:32
Top-releaser
Аватара пользователя
Стаж: 7 лет 3 месяца
Возраст: 25
Сообщений: 1036
Спасибок: 2694
Лайков: 9
История дельфина
Dolphin Tale


«Inspired by the amazing true story of Winter»

Изображение


Год выхода: 2011
Страна: США

Жанр: драма, семейный
Продолжительность: 01:52:40
Перевод: Дублированное [лицензия]

Режиссер: Чарльз Мартин Смит
Сценарий: Карен Джансзен, Ноам Дроми
Продюсер: Ричард Ингбер, Бродерик Джонсон, Эндрю А. Косов, ...
Оператор: Карл Вальтер Линденлауб
Композитор: Марк Айшем

В ролях: Гарри Конник мл., Эшли Джадд, Натан Гэмбл, Крис Кристофферсон, Кози Цуельсдорфф, Морган Фриман, Остин Стоуэлл, Фрэнсис Стернхаген, Остин Хигсмит, Бетси Лэндин

Описание: Пронзительная история дружбы между мальчиком и дельфином, который потерял свой хвост в ловушке для крабов.

Изображение

Изображение

Бюджет: $37 000 000
Cборы в США: $71 370 337
Cборы в мире: + $16 863 234 = $88 233 571
Cборы в России: $2 622 179

Качество BDRip 1080p R5
Формат: Mkv

Видео: MPEG4 Video (H264) 1920x1080 23.98fps 9 541 Kbps
Аудио 1: Dolby AC3 48000Hz 6ch 384 Kbps
Аудио 2: Dts 48000Hz 6ch 1 510 Kbps
Subtitle: Utf-8 (Rus, Eng)

Изображение

MediaInfo
General
Unique ID : 240443153728137185977073342123378318205 (0xB4E3AABE777E513E9A549A92AA4D9B7D)
Complete name : H:\Download\Dolphin.Tale.DVD_RG(1080p).mkv
Format : Matroska
Format version : Version 2
File size : 9.00 GiB
Duration : 1h 52mn
Overall bit rate : 11.4 Mbps
Movie name : Dolphin.Tale.BDRip.1080p.Uniongang.tv
Encoded date : UTC 2011-12-20 19:09:06
Writing application : mkvmerge v5.1.0 ('And so it goes') built on Nov 28 2011 23:58:28
Writing library : libebml v1.2.3 + libmatroska v1.3.0

Video
ID : 1
Format : AVC
Format/Info : Advanced Video Codec
Format profile : High@L4.1
Format settings, CABAC : Yes
Format settings, ReFrames : 4 frames
Codec ID : V_MPEG4/ISO/AVC
Duration : 1h 52mn
Bit rate : 9 541 Kbps
Width : 1 920 pixels
Height : 1 080 pixels
Display aspect ratio : 16:9
Frame rate : 23.976 fps
Color space : YUV
Chroma subsampling : 4:2:0
Bit depth : 8 bits
Scan type : Progressive
Bits/(Pixel*Frame) : 0.192
Stream size : 7.33 GiB (81%)
Title : Dolphin.Tale.BDRip.1080p.Uniongang.tv
Writing library : x264 core 120 r2119 0637cd6
Encoding settings : cabac=1 / ref=4 / deblock=1:-3:-3 / analyse=0x3:0x113 / me=umh / subme=11 / psy=1 / psy_rd=1.05:0.10 / mixed_ref=1 / me_range=48 / chroma_me=1 / trellis=2 / 8x8dct=1 / cqm=0 / deadzone=21,11 / fast_pskip=0 / chroma_qp_offset=-2 / threads=12 / sliced_threads=0 / nr=0 / decimate=1 / interlaced=0 / bluray_compat=0 / constrained_intra=0 / bframes=6 / b_pyramid=2 / b_adapt=2 / b_bias=0 / direct=3 / weightb=1 / open_gop=0 / weightp=2 / keyint=250 / keyint_min=23 / scenecut=40 / intra_refresh=0 / rc_lookahead=60 / rc=2pass / mbtree=1 / bitrate=9541 / ratetol=1.0 / qcomp=0.70 / qpmin=0 / qpmax=69 / qpstep=4 / cplxblur=20.0 / qblur=0.5 / vbv_maxrate=45000 / vbv_bufsize=40000 / nal_hrd=none / ip_ratio=1.40 / aq=2:0.90
Language : English

Audio #1
ID : 2
Format : AC-3
Format/Info : Audio Coding 3
Mode extension : CM (complete main)
Codec ID : A_AC3
Duration : 1h 52mn
Bit rate mode : Constant
Bit rate : 384 Kbps
Channel(s) : 6 channels
Channel positions : Front: L C R, Side: L R, LFE
Sampling rate : 48.0 KHz
Bit depth : 16 bits
Compression mode : Lossy
Stream size : 309 MiB (3%)
Language : Russian

Audio #2
ID : 3
Format : DTS
Format/Info : Digital Theater Systems
Codec ID : A_DTS
Duration : 1h 52mn
Bit rate mode : Constant
Bit rate : 1 510 Kbps
Channel(s) : 6 channels
Channel positions : Front: L C R, Side: L R, LFE
Sampling rate : 48.0 KHz
Bit depth : 24 bits
Compression mode : Lossy
Stream size : 1.19 GiB (13%)
Language : English

Text #1
ID : 4
Format : UTF-8
Codec ID : S_TEXT/UTF8
Codec ID/Info : UTF-8 Plain Text
Title : Voronin
Language : Russian

Text #2
ID : 5
Format : UTF-8
Codec ID : S_TEXT/UTF8
Codec ID/Info : UTF-8 Plain Text
Language : English


Свернуть
Скриншоты
Изображение
Изображение
Изображение
Изображение
Изображение
Свернуть
Не в сети
Профиль  
 Добавлено: 2014-09-16 22:36 (спустя 2 года 8 месяцев)
Аватара пользователя
Стаж: 7 лет 10 месяцев
Сообщений: 64
Лайков: 2
Встаньте на раздачу)
 Shabanov нравится это.
Не в сети
Профиль  
 Добавлено: 2014-09-21 16:07 (спустя 4 дня)
Аватара пользователя
Стаж: 8 лет 1 месяц
Сообщений: 16
Спасибок: 9
FoTP
Раздайте!
Не в сети
Профиль  
 Добавлено: 2014-09-21 17:25 (спустя 1 час 17 минут)
Аватара пользователя
Стаж: 8 лет 1 месяц
Сообщений: 16
Спасибок: 9
FoTP
FoTP
Встаньте на раздачу!!!!!!!!!!!!!!!!!!!!!!!!!!!!!!! :bra_vo: :bra_vo: :bra_vo:
Не в сети
Профиль  
Начать новую темуОтветить на тему  [ Сообщений: 4 ] 
Вы не можете начинать темы
Вы не можете отвечать на сообщения
Вы не можете редактировать свои сообщения
Вы не можете удалять свои сообщения