Правила форума

  • В этом разделе создание новых тем Запрещено.
  • Для создания новых тем пользуйтесь Корневым разделом DVD и HD фильмы.
Начать новую темуОтветить на тему  [ Сообщений: 12 ] 
Торрент файл
Размер: 7.99 GB • Зарегистрирован: 1 год 6 месяцев • Статус: Проверено
Скачан: 1100 раз • Желающих скачать: 0 • Поблагодарили: 209 раз
 Раздают: 9  |  0 KB/s  ]   Качают: 0  |  0 KB/s  ] 
Сообщения
 Добавлено: 2015-05-15 08:19
Модератор
Аватара пользователя
Стаж: 7 лет 9 месяцев
Сообщений: 4521
Спасибок: 112857
Лайков: 583
Из машины

Ex Machina


Изображение


Год выпуска: 2015
Страна: Великобритания
Жанр: Фантастика, драма
Продолжительность: 01:48:01
Перевод: Профессиональный (полное дублирование)
Режиссер: Эрик Ван Лой
В ролях: Донал Глисон, Кори Джонсон, Оскар Айзек, Алисия Викандер, Соноя Мизуно, Симара А. Темплмен, Тиффани Писани, Элина Алминас
Описание: В центре сюжета - молодой человек, которого нанимает миллиардер, сделавший состояние на высокотехнологичных разработках. Задача работника - провести неделю в удаленном местечке, тестируя женщину-робота с искусственным интеллектом.
Изображение
Sample:
http://multi-up.com/1048617
Качество: BDRip (1080p)
Формат: MKV
Видео: MPEG-4 AVC, 8628 Кбит/с, 1920x808, 23.976 кадр/с
Аудио: Русский (AC3, 6 ch, 448 Кбит/с), английский (DTS, 6 ch, 1509 Кбит/с)
MediaInfo
Общее
Уникальный идентификатор : 184176798621766082074136266722479076255 (0x8A8F29414DB8174BA4C964866C3A739F)
Полное имя : D:\Фильмы\Ex.Machina.2015.1080p.BDRip.mkv
Формат : Matroska
Версия формата : Version 2
Размер файла : 7,99 Гбайт
Продолжительность : 1 ч. 48 м.
Общий поток : 10,6 Мбит/сек
Дата кодирования : UTC 2015-05-15 03:51:40
Программа кодирования : mkvmerge v5.2.0 ('I can't explain') built on Dec 18 2011 18:12:03
Библиотека кодирования : libebml v1.2.3 + libmatroska v1.3.0

Видео
Идентификатор : 1
Формат : AVC
Формат/Информация : Advanced Video Codec
Профиль формата : High@L4.1
Параметр CABAC формата : Да
Параметр ReFrames формата : 5 кадров
Идентификатор кодека : V_MPEG4/ISO/AVC
Продолжительность : 1 ч. 48 м.
Битрейт : 8628 Кбит/сек
Ширина : 1920 пикселей
Высота : 808 пикселей
Соотношение сторон : 2,40:1
Режим частоты кадров : Постоянный
Частота кадров : 23,976 кадра/сек
Цветовое пространство : YUV
Субдискретизация насыщенности : 4:2:0
Битовая глубина : 8 бит
Тип развёртки : Прогрессивная
Бит/(Пиксели*Кадры) : 0.232
Размер потока : 6,35 Гбайт (80%)
Библиотека кодирования : x264 core 144 r2525 40bb568
Настройки программы : cabac=1 / ref=5 / deblock=1:0:0 / analyse=0x3:0x133 / me=umh / subme=7 / psy=1 / psy_rd=1.00:0.00 / mixed_ref=1 / me_range=16 / chroma_me=1 / trellis=1 / 8x8dct=1 / cqm=0 / deadzone=21,11 / fast_pskip=0 / chroma_qp_offset=-2 / threads=60 / lookahead_threads=6 / sliced_threads=0 / nr=0 / decimate=1 / interlaced=0 / bluray_compat=0 / constrained_intra=0 / bframes=3 / b_pyramid=2 / b_adapt=1 / b_bias=0 / direct=1 / weightb=1 / open_gop=0 / weightp=2 / keyint=250 / keyint_min=23 / scenecut=40 / intra_refresh=0 / rc_lookahead=40 / rc=2pass / mbtree=1 / bitrate=8628 / ratetol=1.0 / qcomp=0.60 / qpmin=0 / qpmax=69 / qpstep=4 / cplxblur=20.0 / qblur=0.5 / ip_ratio=1.40 / aq=1:1.00
Язык : English
Default : Да
Forced : Нет

Аудио #1
Идентификатор : 2
Формат : AC-3
Формат/Информация : Audio Coding 3
Расширение режима : CM (complete main)
Параметр Endianness формата : Big
Идентификатор кодека : A_AC3
Продолжительность : 1 ч. 48 м.
Вид битрейта : Постоянный
Битрейт : 448 Кбит/сек
Каналы : 6 каналов
Расположение каналов : Front: L C R, Side: L R, LFE
Частота : 48,0 КГц
Битовая глубина : 16 бит
Метод сжатия : С потерями
Размер потока : 346 Мбайт (4%)
Заголовок : DUB, iTunes
Язык : Russian
Default : Да
Forced : Нет

Аудио #2
Идентификатор : 3
Формат : DTS
Формат/Информация : Digital Theater Systems
Режим : 16
Параметр Endianness формата : Big
Идентификатор кодека : A_DTS
Продолжительность : 1 ч. 48 м.
Вид битрейта : Постоянный
Битрейт : 1509 Кбит/сек
Каналы : 6 каналов
Расположение каналов : Front: L C R, Side: L R, LFE
Частота : 48,0 КГц
Битовая глубина : 24 бит
Метод сжатия : С потерями
Размер потока : 1,14 Гбайт (14%)
Заголовок : Original
Язык : English
Default : Нет
Forced : Нет

Текст #1
Идентификатор : 4
Формат : UTF-8
Идентификатор кодека : S_TEXT/UTF8
Идентификатор кодека/Информация : UTF-8 Plain Text
Язык : Russian
Default : Нет
Forced : Нет

Текст #2
Идентификатор : 5
Формат : UTF-8
Идентификатор кодека : S_TEXT/UTF8
Идентификатор кодека/Информация : UTF-8 Plain Text
Язык : English
Default : Нет
Forced : Нет

Текст #3
Идентификатор : 6
Формат : UTF-8
Идентификатор кодека : S_TEXT/UTF8
Идентификатор кодека/Информация : UTF-8 Plain Text
Заголовок : SDH
Язык : English
Default : Нет
Forced : Нет

Меню
00:00:00.000 : en:00:00:00.000
00:04:34.941 : en:00:04:34.941
00:11:16.634 : en:00:11:16.634
00:15:08.157 : en:00:15:08.157
00:23:38.751 : en:00:23:38.751
00:31:57.999 : en:00:31:57.999
00:36:05.163 : en:00:36:05.163
00:40:26.758 : en:00:40:26.758
00:45:56.379 : en:00:45:56.379
00:53:28.956 : en:00:53:28.956
01:00:26.081 : en:01:00:26.081
01:04:01.254 : en:01:04:01.254
01:07:19.077 : en:01:07:19.077
01:13:22.023 : en:01:13:22.023
01:16:56.111 : en:01:16:56.111
01:21:36.517 : en:01:21:36.517
01:27:36.835 : en:01:27:36.835
01:32:54.152 : en:01:32:54.152
01:38:51.008 : en:01:38:51.008
01:42:26.932 : en:01:42:26.932
Свернуть
"Скриншоты"
Изображение
Изображение
Изображение
Свернуть
_________________
Изображение
Не в сети
Профиль  
 Добавлено: 2015-05-17 22:58 (спустя 2 дня 14 часов)
Аватара пользователя
Стаж: 8 лет 5 месяцев
Возраст: 29
Сообщений: 3475
Спасибок: 616
Лайков: 5
тема сисек есть? раз парень "тестирует" тетю ....???
Не в сети
Профиль  
 Добавлено: 2015-05-18 23:05 (спустя 1 день)
Кинокомментатор
Аватара пользователя
Стаж: 9 лет 1 месяц
Сообщений: 1332
Лайков: 54
фильм очень крут! на одном дыхание сто процентов!
вот бабы)) что механические что настоящие)
9/10
_________________
Я ВКонтакте
Не в сети
Профиль  
 Добавлено: 2015-05-19 00:16 (спустя 1 час 11 минут)
Аватара пользователя
Стаж: 6 лет 9 месяцев
Возраст: 38
Сообщений: 3
Да уж. Фильм норм. Только не логичная концовка. в принципе,как и все женщины)))
Не в сети
Профиль  
 Добавлено: 2015-05-28 00:31 (спустя 9 дней)
Аватара пользователя
Стаж: 6 лет 9 месяцев
Возраст: 30
Сообщений: 90
Лайков: 6
классный фильм ,весь фильм интересно было смотреть.
Не в сети
Профиль  
 Добавлено: 2015-05-28 22:12 (спустя 21 час)
Аватара пользователя
Стаж: 9 лет
Возраст: 55
Сообщений: 14343
Спасибок: 181
Лайков: 1182
Неплохо...
_________________
Изображение
Блин...
Изображение
Не в сети
Профиль  
 Добавлено: 2015-06-05 22:59 (спустя 8 дней)
Стаж: 7 лет 3 месяца
Сообщений: 13
Достойно как минимум
Не в сети
Профиль  
 Добавлено: 2015-06-09 17:48 (спустя 3 дня)
Аватара пользователя
Стаж: 8 лет 8 месяцев
Сообщений: 2
тема сисек раскрыта
Не в сети
Профиль  
 Добавлено: 2015-07-05 22:06 (спустя 26 дней)
Аватара пользователя
Стаж: 8 лет 6 месяцев
Сообщений: 529
в конце поступила как 98% женщин
Не в сети
Профиль  
 Добавлено: 2016-02-11 18:24 (спустя 7 месяцев)
Аватара пользователя
Стаж: 3 года 11 месяцев
Возраст: 23
Сообщений: 232
Спасибок: 530
Лайков: 3
фильм хлам хуже некуда, тема сисек раскрыта на 1.99 из 100
Не в сети
Профиль  
 Добавлено: 2016-08-21 12:20 (спустя 6 месяцев)
Аватара пользователя
Стаж: 7 лет 9 месяцев
Возраст: 37
Сообщений: 6
Лайков: 1
отзывы не однозначные... сколько людей-столько и мнений :co_ol:
Не в сети
Профиль  
 Добавлено: 2016-08-21 23:08 (спустя 10 часов)
Аватара пользователя
Стаж: 8 лет 11 месяцев
Сообщений: 517
Спасибок: 39
Лайков: 49
Не приведи Господь встретиться по жизни с одной из этих роботизированных нанотварей.
Не в сети
Профиль  
Начать новую темуОтветить на тему  [ Сообщений: 12 ] 
Вы не можете начинать темы
Вы не можете отвечать на сообщения
Вы не можете редактировать свои сообщения
Вы не можете удалять свои сообщения