Правила форума

  • В этом разделе создание новых тем Запрещено.
  • Для создания новых тем пользуйтесь Корневым разделом DVD и HD фильмы.
Начать новую темуОтветить на тему  [ Сообщений: 7 ] 
Торрент файл
Размер: 18.33 GB • Зарегистрирован: 2 года • Статус: Проверено
Скачан: 111 раз • Желающих скачать: 0 • Поблагодарили: 39 раз
 Раздают: 0  |  0 KB/s  ]   Качают: 0  |  0 KB/s  ] 
 Полного источника не было 5 месяцев 21 день 
Сообщения
 Добавлено: 2014-12-02 20:53
Аватара пользователя
Стаж: 9 лет 1 месяц
Сообщений: 8095
Спасибок: 122340
Лайков: 1196
Избави нас от лукавого / Deliver Us from Evil

«You haven't seen true evil»

Изображение


Год выпуска: 2014
Страна: Изображение США
Жанр: ужасы, триллер
Продолжительность: 01:58:26
Субтитры: Русские, английские, украинские
Перевод: Профессиональный (полное дублирование) [Лицензия] + Авторский (одноголосый, закадровый) [Ю. Немахов] + Авторский (одноголосый, закадровый) [А. Дольский] + Авторский (одноголосый, закадровый) [А. Матвеев]


Режиссер: Скотт Дерриксон
Сценарий: Скотт Дерриксон, Пол Харрис Бордман, Ральф Сарчи
Продюсер: Джерри Брукхаймер, Пол Харрис Бордман, Гленн С. Гейнор
Оператор: Скотт Кеван
Композитор: Кристофер Янг

В ролях: Эрик Бана, Эдгар Рамирес, Оливия Манн, Крис Кой, Дориан Миссик, Шон Харрис, Джоэл МакХэйл, Майк Хьюстон, Лулу Уилсон, Оливия Хортон

Описание: Полиция Нью-Йорка расследует серию тревожных и необъяснимых преступлений. Один из офицеров обращается за помощью к специалисту по экзорцизму, чтобы избавить город от дьявольской напасти.

Изображение Изображение

Раздача группы: Изображение

Качество: BDRip (1080p)
Формат: Matroska
Видео: MPEG-4 AVC, 13600 Кбит/с, 1920x800
Аудио №1: Русский (AC3, 48,0 КГц, 6 ch, 640 Кбит/c) Дубляж
Аудио №2: Украинский (AC3, 48,0 КГц, 6 ch, 640 Кбит/c)
Аудио №3: Русский (DTS, 48,0 КГц, 6 ch, 1510 Кбит/c) Ю. Немахов
Аудио №4: Русский (DTS, 48,0 КГц, 6 ch, 1510 Кбит/c) А. Дольский
Аудио №5: Русский (DTS, 48,0 КГц, 6 ch, 1510 Кбит/c) А. Матвеев
Аудио №6: Английский (DTS, 48,0 КГц, 6 ch, 1510 Кбит/c)
Аудио №7: Английский (AC3, 48,0 КГц, 6 ch, 640 Кбит/c) Descriptive
Аудио №8: Английский (AC3, 48,0 КГц, 2 ch, 192 Кбит/c) Commentary with Writer/Director Scott Derrickson

MediaInfo
Общее
Уникальный идентификатор : 237087028638610555192829097101121243197 (0xB25D4D0072BF1814982C6BFBB683483D)
Полное имя : D:\Films\Expendables_3.2014.BDRip.1080p.mkv
Формат : Matroska
Версия формата : Version 2
Размер файла : 12,0 Гбайт
Продолжительность : 2 ч. 6 м.
Общий поток : 13,5 Мбит/сек
Название фильма : Expendables 3
Дата кодирования : UTC 2014-11-22 12:18:59
Программа кодирования : mkvmerge v5.2.0 ('I can't explain') built on Dec 18 2011 18:12:03
Библиотека кодирования : libebml v1.2.3 + libmatroska v1.3.0

Видео
Идентификатор : 1
Формат : AVC
Формат/Информация : Advanced Video Codec
Профиль формата : High@L4.1
Параметр CABAC формата : Да
Параметр ReFrames формата : 5 кадров
Идентификатор кодека : V_MPEG4/ISO/AVC
Продолжительность : 2 ч. 6 м.
Битрейт : 9703 Кбит/сек
Ширина : 1920 пикселей
Высота : 800 пикселей
Соотношение сторон : 2,40:1
Режим частоты кадров : Постоянный
Частота кадров : 23,976 кадра/сек
Цветовое пространство : YUV
Субдискретизация насыщенности : 4:2:0
Битовая глубина : 8 бит
Тип развёртки : Прогрессивная
Бит/(Пиксели*Кадры) : 0.263
Размер потока : 8,57 Гбайт (72%)
Заголовок : HDAccess
Библиотека кодирования : x264 core 142 r2479kMod dd79a61
Настройки программы : cabac=1 / ref=5 / deblock=1:-3:-3 / analyse=0x3:0x133 / me=umh / subme=11 / psy=1 / fade_compensate=0.00 / psy_rd=1.05:0.00 / mixed_ref=1 / me_range=48 / chroma_me=1 / trellis=2 / 8x8dct=1 / cqm=0 / deadzone=21,11 / fast_pskip=0 / chroma_qp_offset=-2 / threads=18 / lookahead_threads=3 / sliced_threads=0 / nr=0 / decimate=1 / interlaced=0 / bluray_compat=0 / constrained_intra=0 / fgo=0 / bframes=9 / b_pyramid=2 / b_adapt=2 / b_bias=0 / direct=3 / weightb=1 / open_gop=0 / weightp=2 / keyint=230 / keyint_min=23 / scenecut=40 / intra_refresh=0 / rc_lookahead=40 / rc=crf / mbtree=0 / crf=17.8000 / qcomp=0.70 / qpmin=0 / qpmax=69 / qpstep=4 / vbv_maxrate=50000 / vbv_bufsize=62500 / crf_max=0.0 / nal_hrd=none / filler=0 / ip_ratio=1.20 / pb_ratio=1.10 / aq=1:0.85
Язык : English
Default : Да
Forced : Нет
Коэффициенты матрицы : BT.709
colour_range : Limited

Аудио #1
Идентификатор : 2
Формат : DTS
Формат/Информация : Digital Theater Systems
Режим : 16
Параметр Endianness формата : Big
Идентификатор кодека : A_DTS
Продолжительность : 2 ч. 6 м.
Вид битрейта : Постоянный
Битрейт : 1509 Кбит/сек
Каналы : 6 каналов
Расположение каналов : Front: L C R, Side: L R, LFE
Частота : 48,0 КГц
Битовая глубина : 16 бит
Метод сжатия : С потерями
Размер потока : 1,33 Гбайт (11%)
Заголовок : DUB, BD RUS
Язык : Russian
Default : Да
Forced : Нет

Аудио #2
Идентификатор : 3
Формат : AC-3
Формат/Информация : Audio Coding 3
Расширение режима : CM (complete main)
Параметр Endianness формата : Big
Идентификатор кодека : A_AC3
Продолжительность : 2 ч. 6 м.
Вид битрейта : Постоянный
Битрейт : 640 Кбит/сек
Каналы : 6 каналов
Расположение каналов : Front: L C R, Side: L R, LFE
Частота : 48,0 КГц
Битовая глубина : 16 бит
Метод сжатия : С потерями
Размер потока : 579 Мбайт (5%)
Заголовок : DUB, BD RUS
Язык : Russian
Default : Нет
Forced : Нет

Аудио #3
Идентификатор : 4
Формат : AC-3
Формат/Информация : Audio Coding 3
Расширение режима : CM (complete main)
Параметр Endianness формата : Big
Идентификатор кодека : A_AC3
Продолжительность : 2 ч. 6 м.
Вид битрейта : Постоянный
Битрейт : 384 Кбит/сек
Каналы : 2 канала
Расположение каналов : Front: L R
Частота : 48,0 КГц
Битовая глубина : 16 бит
Метод сжатия : С потерями
Размер потока : 347 Мбайт (3%)
Заголовок : MVO, Baibako
Язык : Russian
Default : Нет
Forced : Нет

Аудио #4
Идентификатор : 5
Формат : AC-3
Формат/Информация : Audio Coding 3
Расширение режима : CM (complete main)
Параметр Endianness формата : Big
Идентификатор кодека : A_AC3
Продолжительность : 2 ч. 6 м.
Вид битрейта : Постоянный
Битрейт : 384 Кбит/сек
Каналы : 2 канала
Расположение каналов : Front: L R
Частота : 48,0 КГц
Битовая глубина : 16 бит
Метод сжатия : С потерями
Размер потока : 347 Мбайт (3%)
Заголовок : VO, Д.Есарев
Язык : Russian
Default : Нет
Forced : Нет

Аудио #5
Идентификатор : 6
Формат : AC-3
Формат/Информация : Audio Coding 3
Расширение режима : CM (complete main)
Параметр Endianness формата : Big
Идентификатор кодека : A_AC3
Продолжительность : 2 ч. 6 м.
Вид битрейта : Постоянный
Битрейт : 640 Кбит/сек
Каналы : 6 каналов
Расположение каналов : Front: L C R, Side: L R, LFE
Частота : 48,0 КГц
Битовая глубина : 16 бит
Метод сжатия : С потерями
Размер потока : 579 Мбайт (5%)
Заголовок : Original
Язык : English
Default : Нет
Forced : Нет

Текст #1
Идентификатор : 7
Формат : UTF-8
Идентификатор кодека : S_TEXT/UTF8
Идентификатор кодека/Информация : UTF-8 Plain Text
Язык : Russian
Default : Нет
Forced : Нет

Текст #2
Идентификатор : 8
Формат : UTF-8
Идентификатор кодека : S_TEXT/UTF8
Идентификатор кодека/Информация : UTF-8 Plain Text
Язык : English
Default : Нет
Forced : Нет

Меню
00:00:00.000 : en:00:00:00.000
00:07:07.594 : en:00:07:07.594
00:12:42.095 : en:00:12:42.095
00:21:45.387 : en:00:21:45.387
00:29:31.728 : en:00:29:31.728
00:35:39.929 : en:00:35:39.929
00:41:51.050 : en:00:41:51.050
00:48:05.174 : en:00:48:05.174
00:54:13.250 : en:00:54:13.250
01:00:05.810 : en:01:00:05.810
01:10:43.114 : en:01:10:43.114
01:19:17.586 : en:01:19:17.586
01:28:05.864 : en:01:28:05.864
01:34:28.913 : en:01:34:28.913
01:43:15.064 : en:01:43:15.064
01:51:11.707 : en:01:51:11.707
Свернуть
Знаете ли вы, что...
Фильм снят по мотивам книги нью-йоркского полицейского Ральфа Сарчи «Остерегайтесь ночи» (Beware of the night), которая была написана на основе его личного опыта.

Роль Батлера изначально писалась под Джоэла МакХэйла. При этом, по словам режиссера Скотта Дерриксона, Батлер был худшим персонажем в сценарии. Но потом он представил – каким бы был МакХэйл, если бы он пошел в армию, а не в колледж, и работал бы в правоохранительных органах, а не в сфере развлечений. После этого писать роль стало проще, и персонаж был значительно доработан.

Главную роль предлагали Марку Уолбергу, но он отказался. В итоге роль получил Эрик Бана.

Джоэл МакХэйл несколько месяцев посещал тренировки по обращению с ножами и боевым искусствам, чтобы самостоятельно выполнять трюки с ножами во время съемок. При этом он не получил практически ни одной травмы за время тренировок и в период съемок. Лишь в последний съемочный день, когда сын МакХэйла пришел на съемочную площадку, актер решил отрезать для него своим ножом кусок белого шоколада и порезался.

В фильме большое количество музыки группы The Doors, а также различных отсылок на нее. К примеру, во время финального изгнания нечистой силы Сантино говорит: «Is everybody in? Is everybody in? The ceremony is about to begin» (Все в сборе? Все в сборе? Церемония скоро начнется). Это отсылка к песне «Celebration Of The Lizard».

В начале фильма Джимми оставляет глубокий порез на руке Сарчи во время их противостояния. И его напарник говорит о том, что понадобится наложить швы. Далее в сцене в зоопарке Бронкса раны не видно. А сразу же после этого, когда Сарчи находится у себя дома, его рука уже перевязана.

Когда священник рассказывает Ральфу о своем романе и последующем аборте его девушки, он говорит, что должен быть лишен сана (в оригинале «defrocked»). Затем он говорит, что его исповедник также предупреждал его, что если он еще раз поведет себя подобным образом, то будет лишен сана. «Defrocked» (лишение сана) является протестантским термином, и католические священники его не используют.

Свернуть
Скриншоты
Изображение
Изображение
Изображение
Изображение
Свернуть
Не в сети
Профиль  
 Добавлено: 2014-12-02 23:36 (спустя 2 часа 42 минуты)
Аватара пользователя
Стаж: 6 лет 9 месяцев
Возраст: 30
Сообщений: 91
Лайков: 6
Средненький фильм,посмотреть можно но я ожидал большего.
Не в сети
Профиль  
 Добавлено: 2014-12-03 13:48 (спустя 14 часов)
Аватара пользователя
Стаж: 8 лет 7 месяцев
Возраст: 28
Сообщений: 205
Лайков: 1
Фильм полной отстой, если только убить время.
_________________
Intel Core i7 860 3,36 , Asus Maximus Formula III, 8 Gb DDR3 1600 оперативы, GTX 580.
Не в сети
Профиль  
 Добавлено: 2014-12-03 18:53 (спустя 5 часов)
Стаж: 6 лет 3 месяца
Сообщений: 493
Лайков: 28
ПО МОТИВАМ РЕАЛЬНЫХ СОБЫТИЙ...
Ну да, прям как щас помню - мертвые с косами стоят и тишина....
 alexd79 и vitalll нравится это.
Не в сети
Профиль  
 Добавлено: 2014-12-05 21:54 (спустя 2 дня 3 часа)
Console V.I.P.
Аватара пользователя
Стаж: 9 лет
Сообщений: 1457
Спасибок: 690
Лайков: 12
А можно было миллион сомнительных звуковых дорог отдельными файлами, чтоб объем основного материала облегчить?
_________________
МАСТЕР ПО ИГРОВЫМ КОНСОЛЯМ
ПРОДАЖА И МОДЕРНИЗАЦИЯ ИГРОВЫХ КОНСОЛЕЙ

УСЛУГИ И КОНТАКТЫ (нажать чтобы посмотреть)
icq: 378004868 тел: 89049149337
Не в сети
Профиль  
 Добавлено: 2014-12-25 21:58 (спустя 20 дней)
Аватара пользователя
Стаж: 7 лет 6 месяцев
Сообщений: 5
Фигня полная!!!
Не в сети
Профиль  
 Добавлено: 2014-12-26 16:11 (спустя 18 часов)
Аватара пользователя
Стаж: 8 лет 1 месяц
Сообщений: 346
Спасибок: 85
Лайков: 7
Нормальный фильмец, вполне себе в духе жанра. Держит в напряжении!
Не в сети
Профиль  
Начать новую темуОтветить на тему  [ Сообщений: 7 ] 
Вы не можете начинать темы
Вы не можете отвечать на сообщения
Вы не можете редактировать свои сообщения
Вы не можете удалять свои сообщения