Правила форума

  • В этом разделе создание новых тем Запрещено.
  • Для создания новых тем пользуйтесь Корневым разделом DVD и HD фильмы.
Начать новую темуОтветить на тему  [ 1 сообщение ] 
Торрент файл
Размер: 5.66 GB • Зарегистрирован: 4 года 4 месяца • Статус: Проверено
Скачан: 26 раз • Желающих скачать: 0 • Поблагодарили: 9 раз
 Раздают: 0  |  0 KB/s  ]   Качают: 0  |  0 KB/s  ] 
 Полного источника не было 3 года 2 месяца 
Сообщения
 Добавлено: 2012-07-12 19:54
Top-releaser
Аватара пользователя
Стаж: 6 лет 7 месяцев
Сообщений: 2078
Спасибок: 3229
Лайков: 9
Изгой / Cast Away
«At the edge of the world, his journey begins.»

Изображение


Год выпуска: 2000
Страна: США
Жанр: драма, приключения
Продолжительность: 02:23:46
Перевод: Профессиональный (дубляж), профессиональный (многоголосый, закадровый), авторский (одноголосый)

Режиссёр: Роберт Земекис
В ролях: Том Хэнкс, Хелен Хант, Кристофер Нот, Ник Сирси, Дэвид А. Брукс
Описание: Герой этой картины, Чак Нолан, - сотрудник всемирно известной службы доставки «Федерал Экспресс». Чак - скрупулезный практик и неисправимый педант. Жизнь Нолана, высокопоставленного инспектора международных отделений "ФедЕкс" расписана по минутам. И этих драгоценных минут катастрофически не хватает ни на личную жизнь, ни на любимую женщину... Однако, безжалостная судьба заставила Нолана иначе взглянуть на отпущенное ему время... Самолет, на котором путешествует Чак, падает в океан. Инженер, единственный, кому посчастливилось остаться в живых, попадает на необитаемый остров. Здесь Нолану предстоит провести мучительно долгие годы в жестокой битве за выживание...

Раздача группы: Изображение

Качество: BDRip, 720p
Формат: MKV
Видео кодек: H.264
Аудио кодек: AC3 (Dolby Digital)
Видео: 1280x690 23.976fps ~3825 kbps
Аудио #1: Русский AC3 48000Hz 6ch 384 kbps (1 канал/ОРТ)
Аудио #2: Русский AC3 48000Hz 6ch 448 kbps (многоголосый, закадровый - "Киномания") - отдельным файлом
Аудио #3: Русский AC3 48000Hz 6ch 448 kbps (авторский, одноголосый - Ю. Живов) - отдельным файлом
Аудио #4: English AC3 48000Hz 6ch 448 kbps (оригинал) - отдельным файлом
Cубтитры: Русские, английские

Знаете ли вы, что...
  • Для того, чтобы исполнитель главной роли Том Хэнкс смог потерять около 20 кг веса и отрастить густую шевелюру в производстве картины был сделан перерыв продолжительностью в один год. За это время команда Земекиса успела снять картину «Что скрывает ложь».
  • Практически весь звуковой ряд к сценам, снимавшимся на острове, был наложен уже после завершения съемочного процесса. Самым главным эффектом, которого хотел добиться Земекис, должна была стать полная тишина. Ввиду присутствующей неподалеку от места съемок команды серферов некоторые посторонние шумы все-таки доносились.
  • Большинство ночных сцен фактически снимались в дневное время. Темноту и ночное небо добавляли уже в рамках постпродакшена.
  • Алан Сильвестри написал всего 15 минут музыкального сопровождения к фильму (включая музыку к финальным титрам). На протяжении 103 минут экранного действия (именно столько герой Тома Хэнкса проводит на острове в полном одиночестве) не звучит ни одной музыкальной вставки — лишь тишина и редко звучащие реплики Хэнкса.
  • Имя главного героя — Чак Ноланд. Если записать его имя следующим образом — C. Noland, то оно будет звучать как «See no land» (Не вижу земли).
  • По окончании фильма всех зрителей в основном волнует лишь один-единственный вопрос — «Что же было в неоткрытой посылке?». Роберт Земекис сказал, что там находился водонепроницаемый мобильный телефон, работающий на солнечных батареях.
  • Основатель и владелец службы FedEx, название которой фигурирует на протяжении всей картины, Фрэд Смит получил эпизодическую роль. Как утверждал Роберт Земекис, от FedEx не было получено ни единого цента в качестве спонсорской помощи.
  • Один из трех волейбольных мячей, задействованных в ходе съемок, ушел с молотка за 18,400 долларов США.
  • Фильм снимался на островах Фиджи.
  • Продюсеры составили список практически бесполезных вещей, которые герой должен был найти в посылках: коньки, вечернее платье, документы на развод, видеокассеты и прочее. Затем список был передан экспертам по выживанию, которые предложили, как именно можно использовать найденное: топор, рыболовная сеть и так далее.
Свернуть
MediaInfo
Общее
Уникальный идентификатор : 208256209389905730812455162516989861357 (0x9CACAFDDB729D0F88655EBD282B0DDED)
Полное имя : Z:\WWW\TR-Downloads\Cast.Away,720p[R.G.Daredevil]\Cast.Away.2000.720p.BluRay.3xRus.Eng.SUB.mkv
Формат : Matroska
Версия формата : Version 2
Размер файла : 4,31 Гбайт
Продолжительность : 2 ч. 23 м.
Общий поток : 4295 Кбит/сек
Название фильма : Cast Away (2000) - Releasу by stim_too
Дата кодирования : UTC 2009-09-27 13:50:08
Программа кодирования : mkvmerge v2.9.8 ('C'est le bon') built on Aug 13 2009 12:49:06
Библиотека кодирования : libebml v0.7.7 + libmatroska v0.8.1

Видео
Идентификатор : 1
Формат : AVC
Формат/Информация : Advanced Video Codec
Профиль формата : High@L4.1
Параметр CABAC формата : Да
Параметр ReFrames формата : 9 кадров
Идентификатор кодека : V_MPEG4/ISO/AVC
Продолжительность : 2 ч. 23 м.
Битрейт : 3825 Кбит/сек
Ширина : 1280 пикселей
Высота : 690 пикселей
Соотношение сторон : 1,85:1
Частота кадров : 23,976 кадра/сек
Цветовое пространство : YUV
Субдискретизация насыщенности : 4:2:0
Битовая глубина : 8 бит
Тип развёртки : Прогрессивная
Бит/(Пиксели*Кадры) : 0.181
Размер потока : 3,84 Гбайт (89%)
Заголовок : Release by stim_too
Библиотека кодирования : x264 core 75 r1251M e553a4c
Настройки программы : cabac=1 / ref=9 / deblock=1:-1:-2 / analyse=0x3:0x113 / me=umh / subme=9 / psy=1 / psy_rd=1.0:0.0 / mixed_ref=1 / me_range=32 / chroma_me=1 / trellis=2 / 8x8dct=1 / cqm=0 / deadzone=21,11 / chroma_qp_offset=-2 / threads=12 / nr=0 / decimate=1 / mbaff=0 / bframes=4 / b_pyramid=0 / b_adapt=2 / b_bias=0 / direct=3 / wpredb=1 / keyint=250 / keyint_min=25 / scenecut=40 / rc_lookahead=40 / rc=crf / mbtree=0 / crf=19.7 / qcomp=0.60 / qpmin=10 / qpmax=51 / qpstep=4 / vbv_maxrate=50000 / vbv_bufsize=50000 / ip_ratio=1.40 / pb_ratio=1.30 / aq=1:0.80
Язык : Russian
Default : Нет
Forced : Нет

Аудио
Идентификатор : 2
Формат : AC-3
Формат/Информация : Audio Coding 3
Расширение режима : CM (complete main)
Параметр Endianness формата : Big
Идентификатор кодека : A_AC3
Продолжительность : 2 ч. 23 м.
Вид битрейта : Постоянный
Битрейт : 384 Кбит/сек
Каналы : 6 каналов
Расположение каналов : Front: L C R, Side: L R, LFE
Частота : 48,0 КГц
Битовая глубина : 16 бит
Метод сжатия : С потерями
Размер потока : 395 Мбайт (9%)
Заголовок : AC3 5.1 384 Kbps Дубляж - ОРТ
Язык : Russian
Default : Да
Forced : Нет

Текст #1
Идентификатор : 3
Формат : UTF-8
Идентификатор кодека : S_TEXT/UTF8
Идентификатор кодека/Информация : UTF-8 Plain Text
Язык : English
Default : Нет
Forced : Нет

Текст #2
Идентификатор : 4
Формат : UTF-8
Идентификатор кодека : S_TEXT/UTF8
Идентификатор кодека/Информация : UTF-8 Plain Text
Язык : Russian
Default : Да
Forced : Нет
Свернуть
Скриншоты
Изображение

Изображение

Изображение

Изображение

Изображение
Свернуть
Не в сети
Профиль  
Начать новую темуОтветить на тему  [ 1 сообщение ] 
Вы не можете начинать темы
Вы не можете отвечать на сообщения
Вы не можете редактировать свои сообщения
Вы не можете удалять свои сообщения