Правила форума

  • В этом разделе создание новых тем Запрещено.
  • Для создания новых тем пользуйтесь Корневым разделом DVD и HD фильмы.
Начать новую темуОтветить на тему  [ 1 сообщение ] 
Торрент файл
Размер: 8.12 GB • Зарегистрирован: 3 года 5 месяцев • Статус: Проверено
Скачан: 33 раза • Желающих скачать: 0 • Поблагодарили: 8 раз
 Раздают: 0  |  0 KB/s  ]   Качают: 0  |  0 KB/s  ] 
 Полного источника не было 2 года 11 месяцев 
Сообщения
 Добавлено: 2013-06-14 21:55
Аватара пользователя
Стаж: 8 лет 8 месяцев
Сообщений: 572
Спасибок: 12628
Лайков: 11
Измеряя мир

Die Vermessung der Welt


Изображение


Год выпуска: 2012
Страна: Германия (Boje Buck Produktion, Lotus Film, A Company Filmproduktionsgesellschaft)
Жанр: Приключения, драма
Продолжительность: 02:02:55
Перевод: Профессиональный (дубляж) [Лицензия]
Субтитры: Английские, Немецкие

Режиссёр: Детлев Бук
В ролях: Флориан Давид Фиц, Альбрехт Шух, Baldanpurev Sambuu, Аги Ариунсэйчан Даваачу, Жереми Капон, Вики Крипс, Карл Марковиц, Леннарт Хансель, Ядеа
Описание: Аристократу Александру фон Гумбольдту было с рождения предначертано наслаждаться жизнью в родовом замке, выезжать на светские рауты и охоту, а по выходным посещать церковь. Но он с детства мечтал о путешествиях.Сыну бедняков Карлу Гауссу было с рождения предначертано повторить нелёгкую судьбу родителей. Но школьный учитель распознал его гений и выхлопотал стипендию для учебы в гимназии. Александр Фон Гумбольдт путешествовал всю свою жизнь, постигая мир через собственный опыт и наблюдения — и мир приобрел учёного-энциклопедиста и основателя множества областей науки. Карл Гаусс всю жизнь прожил в Брауншвайге и Гёттингене, что не помешало ему изобрести теорию чисел и стать одним из величайших математиков всех времен. В 1828 году два исследователя и покорителя мира встретятся на Первом Всемирном конгрессе в Берлине…


Качество: BDRip 720p
Формат: MKV
Видео кодек: MPEG4
Аудио кодек: AC3 (Dolby Digital)
Видео: MPEG-4 AVC, 7310 Кбит/с, 1280x690
Аудио #1: Русский (AC3, 6 ch, 448 Кбит/с) [Профессиональный (дубляж)] [Лицензия]
Аудио #2: Немецкий (DTS, 6 ch, 1510 Кбит/с) [Оригинал]
Субтитры: Английские, Немецкие

MediaInfo
General
Unique ID : 237468420054005962791824729357776934108 (0xB2A6C10CE2205563A3FD9F8A165D54DC)
Complete name : D:\КИНО\ИЮНЬ 2013\Izmerjaja.mir.2012.D.BDRip.720p.NNTT.mkv
Format : Matroska
Format version : Version 2
File size : 8.12 GiB
Duration : 2h 2mn
Overall bit rate : 9 456 Kbps
Movie name : IRONCLUB
Encoded date : UTC 2013-06-14 15:27:08
Writing application : mkvmerge v5.2.0 ('I can't explain') built on Dec 18 2011 18:12:03
Writing library : libebml v1.2.3 + libmatroska v1.3.0

Video
ID : 1
Format : AVC
Format/Info : Advanced Video Codec
Format profile : High@L4.1
Format settings, CABAC : Yes
Format settings, ReFrames : 9 frames
Codec ID : V_MPEG4/ISO/AVC
Duration : 2h 2mn
Bit rate : 7 310 Kbps
Width : 1 280 pixels
Height : 690 pixels
Display aspect ratio : 1.855
Frame rate : 23.976 fps
Color space : YUV
Chroma subsampling : 4:2:0
Bit depth : 8 bits
Scan type : Progressive
Bits/(Pixel*Frame) : 0.345
Stream size : 6.28 GiB (77%)
Title : Die.Vermessung.der.Welt.2012.720p.BluRay.DTS.x264-EbP
Language : German
Default : Yes
Forced : Yes

Audio #1
ID : 2
Format : AC-3
Format/Info : Audio Coding 3
Mode extension : CM (complete main)
Codec ID : A_AC3
Duration : 2h 2mn
Bit rate mode : Constant
Bit rate : 448 Kbps
Channel(s) : 6 channels
Channel positions : Front: L C R, Side: L R, LFE
Sampling rate : 48.0 KHz
Bit depth : 16 bits
Compression mode : Lossy
Stream size : 394 MiB (5%)
Title : DD 5.1 @ 448 kbps - Dub, R5
Language : Russian
Default : Yes
Forced : Yes

Audio #2
ID : 3
Format : DTS
Format/Info : Digital Theater Systems
Codec ID : A_DTS
Duration : 2h 2mn
Bit rate mode : Constant
Bit rate : 1 510 Kbps
Channel(s) : 6 channels
Channel positions : Front: L C R, Side: L R, LFE
Sampling rate : 48.0 KHz
Bit depth : 24 bits
Compression mode : Lossy
Stream size : 1.30 GiB (16%)
Title : DTS 5.1 @ 1536 kbps
Language : German
Default : No
Forced : No

Text #1
ID : 4
Format : UTF-8
Codec ID : S_TEXT/UTF8
Codec ID/Info : UTF-8 Plain Text
Language : English
Default : No
Forced : No

Text #2
ID : 5
Format : UTF-8
Codec ID : S_TEXT/UTF8
Codec ID/Info : UTF-8 Plain Text
Language : German
Default : No
Forced : No

Menu
00:00:00.000 : en:00:00:00.000
00:12:05.475 : en:00:12:05.475
00:20:29.812 : en:00:20:29.812
00:31:42.275 : en:00:31:42.275
00:42:16.325 : en:00:42:16.325
00:52:51.794 : en:00:52:51.794
01:01:46.620 : en:01:01:46.620
01:12:15.540 : en:01:12:15.540
01:24:07.042 : en:01:24:07.042
01:35:39.025 : en:01:35:39.025
01:44:35.519 : en:01:44:35.519
01:54:44.544 : en:01:54:44.544
Свернуть

Скриншоты
Изображение
Изображение
Изображение
Свернуть
Не в сети
Профиль  
Начать новую темуОтветить на тему  [ 1 сообщение ] 
Вы не можете начинать темы
Вы не можете отвечать на сообщения
Вы не можете редактировать свои сообщения
Вы не можете удалять свои сообщения