Правила форума

  • В этом разделе создание новых тем Запрещено.
  • Для создания новых тем пользуйтесь Корневым разделом DVD и HD фильмы.
Начать новую темуОтветить на тему  [ Сообщений: 3 ] 
Торрент файл
Размер: 13.53 GB • Зарегистрирован: 3 года 5 месяцев • Статус: Проверено
Скачан: 85 раз • Желающих скачать: 0 • Поблагодарили: 23 раза
 Раздают: 0  |  0 KB/s  ]   Качают: 0  |  0 KB/s  ] 
 Полного источника не было 7 месяцев 
Сообщения
 Добавлено: 2013-06-17 19:48
Аватара пользователя
Стаж: 9 лет 1 месяц
Сообщений: 7981
Спасибок: 122207
Лайков: 1191
Измеряя мир / Die Vermessung der Welt

Изображение


Год выпуска: 2012
Страна: Изображение Германия
Жанр: приключения, драма
Продолжительность: 02:02:55
Субтитры: Русские, английские
Перевод: Профессиональный (полное дублирование) [Лицензия]


Режиссер: Детлев Бук
Сценарий: Дэниэл Кельманн, Детлев Бук
Продюсер: Клаус Бойе, Детлев Бук, Петер Виртензон
Оператор: Славомир Идзяк
Композитор: Энис Роттхофф

В ролях: Флориан Давид Фиц, Альбрехт Шух, Балданпурев Самбуу, Аги Ариунсэйчан Даваачу, Жереми Капон, Вики Крипс, Карл Марковиц, Леннарт Хансель, Ядеа, Паскаль Фиедлер

Описание: Аристократу Александру фон Гумбольдту было с рождения предначертано наслаждаться жизнью в родовом замке, выезжать на светские рауты и охоту, а по выходным посещать церковь. Но он с детства мечтал о путешествиях.

Сыну бедняков Карлу Гауссу было с рождения предначертано повторить нелёгкую судьбу родителей. Но школьный учитель распознал его гений и выхлопотал стипендию для учебы в гимназии.

Александр Фон Гумбольдт путешествовал всю свою жизнь, постигая мир через собственный опыт и наблюдения — и мир приобрел учёного-энциклопедиста и основателя множества областей науки. Карл Гаусс всю жизнь прожил в Брауншвайге и Гёттингене, что не помешало ему изобрести теорию чисел и стать одним из величайших математиков всех времен. В 1828 году два исследователя и покорителя мира встретятся на Первом Всемирном конгрессе в Берлине…


Изображение Изображение

Раздача группы: Изображение

Качество: BDRip (1080p)
Формат: Matroska
Видео: MPEG-4 AVC, 13.8 Мбит/с, 1920x1036
Аудио №1: Русский (AC3, 48,0 КГц, 6 ch, 448 Кбит/c)
Аудио №2: Немецкий (DTS, 48,0 КГц, 6 ch, 1510 Кбит/c)

MediaInfo
Общее
Уникальный идентификатор : 228223518771180833093178683826558460412 (0xABB24039C4D8C57BA1174E92FB13E1FC)
Полное имя : C:\Фильмы\Izmerjaja.mir.2012.D.BDRip.1080p.R.G.Daredevil.mkv
Формат : Matroska
Версия формата : Version 2
Размер файла : 13,5 Гбайт
Продолжительность : 2 ч. 2 м.
Общий поток : 15,8 Мбит/сек
Название фильма : InterHD
Дата кодирования : UTC 2013-06-15 13:49:39
Программа кодирования : mkvmerge v5.8.0 ('No Sleep / Pillow') built on Sep 2 2012 15:37:04
Библиотека кодирования : libebml v1.2.3 + libmatroska v1.3.0

Видео
Идентификатор : 1
Формат : AVC
Формат/Информация : Advanced Video Codec
Профиль формата : High@L4.1
Параметр CABAC формата : Да
Параметр ReFrames формата : 4 кадра
Идентификатор кодека : V_MPEG4/ISO/AVC
Продолжительность : 2 ч. 2 м.
Битрейт : 13,8 Мбит/сек
Ширина : 1920 пикселей
Высота : 1036 пикселей
Соотношение сторон : 1,85:1
Режим частоты кадров : Постоянный
Частота кадров : 23,976 кадра/сек
Цветовое пространство : YUV
Субдискретизация насыщенности : 4:2:0
Битовая глубина : 8 бит
Тип развёртки : Прогрессивная
Бит/(Пиксели*Кадры) : 0.289
Размер потока : 11,6 Гбайт (86%)
Заголовок : HDWing
Библиотека кодирования : x264 core 132 r2323+704+51 d571b1c tMod [8-bit@4:2:0 X86_64]
Настройки программы : cabac=1 / ref=4 / deblock=1:-3:-3 / analyse=0x3:0x113 / me=tesa / subme=11 / psy=1 / fade_compensate=0.00 / psy_rd=1.10:0.00 / mixed_ref=1 / me_range=24 / chroma_me=1 / trellis=2 / 8x8dct=1 / cqm=0 / deadzone=21,11 / fast_pskip=0 / chroma_qp_offset=-2 / threads=18 / lookahead_threads=3 / sliced_threads=0 / nr=0 / decimate=0 / interlaced=0 / bluray_compat=0 / constrained_intra=0 / fgo=0 / bframes=8 / b_pyramid=2 / b_adapt=2 / b_bias=0 / direct=3 / weightb=1 / open_gop=0 / weightp=2 / keyint=240 / keyint_min=24 / scenecut=40 / intra_refresh=0 / rc=2pass / mbtree=0 / bitrate=13800 / ratetol=1.0 / qcomp=0.70 / qpmin=0 / qpmax=69 / qpstep=4 / cplxblur=20.0 / qblur=0.5 / ip_ratio=1.15 / pb_ratio=1.15 / aq=4:0.95 / aq-sensitivity=10.00 / aq-factor=1.00:1.00:1.00 / aq2=0 / aq3=0
Язык : English
Default : Да
Forced : Нет

Аудио #1
Идентификатор : 2
Формат : AC-3
Формат/Информация : Audio Coding 3
Расширение режима : CM (complete main)
Параметр Endianness формата : Big
Идентификатор кодека : A_AC3
Продолжительность : 2 ч. 2 м.
Вид битрейта : Постоянный
Битрейт : 448 Кбит/сек
Каналы : 6 каналов
Расположение каналов : Front: L C R, Side: L R, LFE
Частота : 48,0 КГц
Битовая глубина : 16 бит
Метод сжатия : С потерями
Размер потока : 394 Мбайт (3%)
Язык : Russian
Default : Да
Forced : Нет

Аудио #2
Идентификатор : 3
Формат : DTS
Формат/Информация : Digital Theater Systems
Режим : 16
Параметр Endianness формата : Big
Идентификатор кодека : A_DTS
Продолжительность : 2 ч. 2 м.
Вид битрейта : Постоянный
Битрейт : 1509 Кбит/сек
Каналы : 6 каналов
Расположение каналов : Front: L C R, Side: L R, LFE
Частота : 48,0 КГц
Битовая глубина : 24 бит
Метод сжатия : С потерями
Размер потока : 1,30 Гбайт (10%)
Заголовок : German DTS 5.1
Язык : German
Default : Нет
Forced : Нет

Текст #1
Идентификатор : 4
Формат : UTF-8
Идентификатор кодека : S_TEXT/UTF8
Идентификатор кодека/Информация : UTF-8 Plain Text
Язык : Russian
Default : Нет
Forced : Нет

Текст #2
Идентификатор : 5
Формат : UTF-8
Идентификатор кодека : S_TEXT/UTF8
Идентификатор кодека/Информация : UTF-8 Plain Text
Язык : English
Default : Нет
Forced : Нет

Меню
00:00:00.000 : en:00:00:00.000
00:12:05.475 : en:00:12:05.475
00:20:29.812 : en:00:20:29.812
00:31:42.275 : en:00:31:42.275
00:42:16.325 : en:00:42:16.325
00:52:51.794 : en:00:52:51.794
01:01:46.620 : en:01:01:46.620
01:12:15.540 : en:01:12:15.540
01:24:07.042 : en:01:24:07.042
01:35:39.025 : en:01:35:39.025
01:44:35.519 : en:01:44:35.519
01:54:44.544 : en:01:54:44.544
Свернуть
Скриншоты
Изображение
Изображение
Изображение
Изображение
Свернуть
Не в сети
Профиль  
 Добавлено: 2013-06-19 10:57 (спустя 1 день 15 часов)
Стаж: 5 лет 10 месяцев
Сообщений: 54
Лайков: 2
и о чём же кино :ne_znayu:
Не в сети
Профиль  
 Добавлено: 2013-08-01 16:35 (спустя 1 месяц 12 дней)
Стаж: 3 года 5 месяцев
Сообщений: 4
Лайков: 1
отличный фильм)
Не в сети
Профиль  
Начать новую темуОтветить на тему  [ Сообщений: 3 ] 
Вы не можете начинать темы
Вы не можете отвечать на сообщения
Вы не можете редактировать свои сообщения
Вы не можете удалять свои сообщения