Правила форума

  • В этом разделе создание новых тем Запрещено.
  • Для создания новых тем пользуйтесь Корневым разделом DVD и HD фильмы.
Начать новую темуОтветить на тему  [ Сообщений: 2 ] 
Торрент файл
Размер: 7.1 GB • Зарегистрирован: 3 года 11 месяцев • Статус: T Временный релиз
Скачан: 55 раз • Желающих скачать: 0 • Поблагодарили: 15 раз
 Раздают: 0  |  0 KB/s  ]   Качают: 0  |  0 KB/s  ] 
 Полного источника не было 8 месяцев 
Сообщения
 Добавлено: 2012-12-18 01:07
Аватара пользователя
Стаж: 6 лет 5 месяцев
Сообщений: 19961
Спасибок: 721
Лайков: 461
Извлечение / Extracted (2012) BDRip

Изображение


Русское название: Извлечение
Оригинальное название: Extracted
Год выпуска: 2012
Производство: США | New Artists Alliance
Жанр: Фантастика, Драма
Перевод: Двухголосый закадровый любительский + одноголосый закадровый любительский
Автор перевода: [den904, DeadSno], перевод [Janetta] + [Kerob]
Язык субтитров: Английский, Датский,Финский, Норвежский, Шведский
Вид субтитров: Вшитые отключаемые
Дата мировой премьеры: 10 марта 2012
Режиссер: Нир Панири
Продюсер: Гэбриел Кауэн, Джон Суитц, Керри Джонсон Бэйли
Актеры: Саша Ройз, Дженни Моллен, Доминик Богарт, Ричард Риле, Ник Джеймисон, Родни Истман, Фрэнк Эшмор, Брэд Калвер, Тай Симпкинс, Сара Томко
Описание фильма:
Главный герой Томас Джейкобс изобретает способ проникать в память людей и просматривать их воспоминания «своими глазами». Так он может возвращаться в собственные воспоминания и снова переживать счастливые моменты своей жизни. Но однажды Том вынужден действовать в разрез своим моральным принципам и использовать своё изобретение, чтобы войти в воспоминания одного наркомана и в буквальном смысле слова увидеть, совершал ли он преступление, в котором его обвиняют. Однако по причине повреждённости сознания преступника наркотиками, Том оказывается пойман в ловушке внутри его головы. Теперь ему предстоит прожить в памяти наркомана почти четыре года, до тех пор, пока он не обнаружит долгожданную возможность побега.

http://www.imdb.com/tt1757746 http://www.kinopoisk.ru/film/570574
Изображение

Продолжительность: 01:28:53
Качество видео: BDRip 1080p [SONiDO]

Видеокодек: MPEG-4 AVC/H.264
Битрейт видео: ~ 9037 Кбит/сек
Размер кадра: 1920 x 800 (2.400) at 23.976 fps : 0.245 Bits/Pixel
Аудиокодек: AC3 5.1 | DTS
Аудио #1: AC3 448 Кбит/сек (6ch), 48,0 КГц, 16 бит [Русский, DVO]
Аудио #2: AC3 448 Кбит/сек (6ch), 48,0 КГц, 16 бит [Русский, VO]
Аудио #3: DTS 1510 Кбит/сек (6ch), 48,0 КГц, 24 бит [Английский]
Дополнительно: Сохранены оригинальные чаптеры как на Blu-ray

MediaInfo:
Полное имя                               : F:\Фильмы\HD-BD\Извлечение Extracted 2012 720p BluRay x264-SONiDO\Extracted.2012.L1.BDRip.1080p.NNM-CLUB.mkv
Формат                                   : Matroska
Версия формата                           : Version 2
Размер файла                             : 7,10 Гбайт
Продолжительность                        : 1 ч. 28 м.
Общий поток                              : 11,4 Мбит/сек
Название фильма                          : -=NNM-CLUB.RU=-
Дата кодирования                         : UTC 2012-12-16 01:26:28
Программа кодирования                    : mkvmerge v5.0.1 ('Es ist Sommer') built on Oct 24 2011 19:45:06
Библиотека кодирования                   : libebml v1.2.2 + libmatroska v1.3.0

Видео
Идентификатор                            : 1
Формат                                   : AVC
Формат/Информация                        : Advanced Video Codec
Профиль формата                          : High@L4.1
Параметр CABAC формата                   : Да
Параметр ReFrames формата                : 5 кадров
Режим смешивания                         : Header stripping
Идентификатор кодека                     : V_MPEG4/ISO/AVC
Продолжительность                        : 1 ч. 28 м.
Битрейт                                  : 9037 Кбит/сек
Ширина                                   : 1920 пикселей
Высота                                   : 800 пикселей
Соотношение сторон                       : 2,40:1
Режим частоты кадров                     : Постоянный
Частота кадров                           : 23,976 кадра/сек
Цветовое пространство                    : YUV
Субдискретизация насыщенности            : 4:2:0
Битовая глубина                          : 8 бит
Тип развёртки                            : Прогрессивная
Бит/(Пиксели*Кадры)                      : 0.245
Размер потока                            : 5,47 Гбайт (77%)
Заголовок                                : Extracted.2012.L1.BDRip.1080p.NNM-CLUB
Библиотека кодирования                   : x264 core 128 r2216 198a7ea
Настройки программы                      : cabac=1 / ref=5 / deblock=1:0:0 / analyse=0x3:0x113 / me=umh / subme=8 / psy=1 / psy_rd=1.00:0.00 / mixed_ref=1 / me_range=16 / chroma_me=1 / trellis=1 / 8x8dct=1 / cqm=0 / deadzone=21,11 / fast_pskip=1 / chroma_qp_offset=-2 / threads=12 / lookahead_threads=2 / sliced_threads=0 / nr=0 / decimate=1 / interlaced=0 / bluray_compat=0 / constrained_intra=0 / bframes=3 / b_pyramid=2 / b_adapt=2 / b_bias=0 / direct=3 / weightb=1 / open_gop=0 / weightp=2 / keyint=240 / keyint_min=24 / scenecut=40 / intra_refresh=0 / rc_lookahead=50 / rc=2pass / mbtree=1 / bitrate=9037 / ratetol=1.0 / qcomp=0.60 / qpmin=0 / qpmax=69 / qpstep=4 / cplxblur=20.0 / qblur=0.5 / ip_ratio=1.40 / aq=1:1.00
Язык                                     : English
Default                                  : Да
Forced                                   : Нет

Аудио #1
Идентификатор                            : 2
Формат                                   : AC-3
Формат/Информация                        : Audio Coding 3
Расширение режима                        : CM (complete main)
Параметр Endianness формата              : Big
Режим смешивания                         : Header stripping
Идентификатор кодека                     : A_AC3
Продолжительность                        : 1 ч. 28 м.
Вид битрейта                             : Постоянный
Битрейт                                  : 448 Кбит/сек
Каналы                                   : 6 каналов
Расположение каналов                     : Front: L C R, Side: L R, LFE
Частота                                  : 48,0 КГц
Битовая глубина                          : 16 бит
Метод сжатия                             : С потерями
Размер потока                            : 285 Мбайт (4%)
Заголовок                                : AC3.448.Kbps (6ch) Russian (den904, DeadSno)
Default                                  : Нет
Forced                                   : Нет

Аудио #2
Идентификатор                            : 3
Формат                                   : AC-3
Формат/Информация                        : Audio Coding 3
Расширение режима                        : CM (complete main)
Параметр Endianness формата              : Big
Режим смешивания                         : Header stripping
Идентификатор кодека                     : A_AC3
Продолжительность                        : 1 ч. 28 м.
Вид битрейта                             : Постоянный
Битрейт                                  : 448 Кбит/сек
Каналы                                   : 6 каналов
Расположение каналов                     : Front: L C R, Side: L R, LFE
Частота                                  : 48,0 КГц
Битовая глубина                          : 16 бит
Метод сжатия                             : С потерями
Размер потока                            : 285 Мбайт (4%)
Заголовок                                : AC3.448.Kbps (6ch) Russian (Kerob)
Язык                                     : Russian
Default                                  : Нет
Forced                                   : Нет

Аудио #3
Идентификатор                            : 4
Формат                                   : DTS
Формат/Информация                        : Digital Theater Systems
Режим смешивания                         : Header stripping
Идентификатор кодека                     : A_DTS
Продолжительность                        : 1 ч. 28 м.
Вид битрейта                             : Постоянный
Битрейт                                  : 1510 Кбит/сек
Каналы                                   : 6 каналов
Расположение каналов                     : Front: L C R, Side: L R, LFE
Частота                                  : 48,0 КГц
Битовая глубина                          : 24 бит
Метод сжатия                             : С потерями
Размер потока                            : 960 Мбайт (13%)
Заголовок                                : DTS.1510.Kbps (6ch) English
Язык                                     : English
Default                                  : Нет
Forced                                   : Нет

Текст #1
Идентификатор                            : 5
Формат                                   : UTF-8
Идентификатор кодека                     : S_TEXT/UTF8
Идентификатор кодека/Информация          : UTF-8 Plain Text
Заголовок                                : English (Full)
Язык                                     : English
Default                                  : Да
Forced                                   : Нет

Текст #2
Идентификатор                            : 6
Формат                                   : UTF-8
Идентификатор кодека                     : S_TEXT/UTF8
Идентификатор кодека/Информация          : UTF-8 Plain Text
Заголовок                                : Danish (Full)
Язык                                     : Danish
Default                                  : Нет
Forced                                   : Нет

Текст #3
Идентификатор                            : 7
Формат                                   : UTF-8
Идентификатор кодека                     : S_TEXT/UTF8
Идентификатор кодека/Информация          : UTF-8 Plain Text
Заголовок                                : Finnish (Full)
Язык                                     : Finnish
Default                                  : Нет
Forced                                   : Нет

Текст #4
Идентификатор                            : 8
Формат                                   : UTF-8
Идентификатор кодека                     : S_TEXT/UTF8
Идентификатор кодека/Информация          : UTF-8 Plain Text
Заголовок                                : Norwegian (Full)
Язык                                     : Norwegian
Default                                  : Нет
Forced                                   : Нет

Текст #5
Идентификатор                            : 9
Формат                                   : UTF-8
Идентификатор кодека                     : S_TEXT/UTF8
Идентификатор кодека/Информация          : UTF-8 Plain Text
Заголовок                                : Swedish (Full)
Язык                                     : Swedish
Default                                  : Нет
Forced                                   : Нет

Меню
00:00:00.000                             : en:00:00:00.000
00:08:10.949                             : en:00:08:10.949
00:16:35.995                             : en:00:16:35.995
00:25:47.004                             : en:00:25:47.004
00:35:21.953                             : en:00:35:21.953
00:45:43.991                             : en:00:45:43.991
00:53:41.969                             : en:00:53:41.969
01:02:02.928                             : en:01:02:02.928
01:08:15.925                             : en:01:08:15.925
01:14:02.897                             : en:01:14:02.897
01:22:08.924                             : en:01:22:08.924
01:25:06.893                             : en:01:25:06.893
01:26:39.945                             : en:01:26:39.945

Свернуть


СКРИНШОТЫ
Изображение
Изображение
Изображение
Изображение
Изображение
Изображение
Изображение
Изображение
Изображение
Свернуть

Изображение
Изображение



Время раздачи: 24/7 (до 10 скачавших)




ОТ АВТОРА
ИзображениеИзображениеИзображение
Свернуть
_________________
It was I'am ... :jn_pu_sk:
Медали и Ордена
ИзображениеИзображение
Свернуть


Последний раз редактировалось *ЖОРА* 2012-12-18 13:34, всего редактировалось 2 раз(а).
Не в сети
Профиль  
 Добавлено: 2012-12-18 05:39 (спустя 4 часа)
Руководитель релиз-группы
Аватара пользователя
Стаж: 7 лет 5 месяцев
Возраст: 31
Сообщений: 3407
Спасибок: 46729
Лайков: 5
*ЖОРА*
скрины должны быть полноразмерными
Не в сети
Профиль  
Начать новую темуОтветить на тему  [ Сообщений: 2 ] 
Вы не можете начинать темы
Вы не можете отвечать на сообщения
Вы не можете редактировать свои сообщения
Вы не можете удалять свои сообщения