Правила форума

  • В этом разделе создание новых тем Запрещено.
  • Для создания новых тем пользуйтесь Корневым разделом DVD и HD фильмы.
Начать новую темуОтветить на тему  [ Сообщений: 8 ] 
Торрент файл
Размер: 3.54 GB • Зарегистрирован: 3 года 11 месяцев • Статус: Проверено
Скачан: 245 раз • Желающих скачать: 0 • Поблагодарили: 71 раз
 Раздают: 0  |  0 KB/s  ]   Качают: 0  |  0 KB/s  ] 
 Полного источника не было 1 год 10 месяцев 
Сообщения
 Добавлено: 2012-12-31 00:19
Модератор
Аватара пользователя
Стаж: 6 лет 10 месяцев
Возраст: 33
Сообщений: 5908
Спасибок: 61260
Лайков: 3540
Изображение

Извлечение
Extracted


Год выпуска: 2012
Страна: США
Жанр: фантастика, драма
Продолжительность: 01:28:53
Перевод: Профессиональный (многоголосый, закадровый) - BaiBako
Перевод: Юлия Луцкая
Озвучка: Александр Фурман, Кристина Романова, Виталий Ткаченко и Татьяна Оболевич

Режиссер: Nir Paniry
Сценарий: Nir Paniry, Гэбриел Кауэн, Джон Суитц
Продюсер: Гэбриел Кауэн, Джон Суитц, Керри Джонсон Бэйли, Жак Кристо, Camille LaBry
Оператор: Марк Путнэм
Композитор: Тим Зисмер
В ролях: Саша Ройз, Дженни Моллен, Доминик Богарт, Ричард Риле, Ник Джеймисон, Родни Истман, Фрэнк Эшмор, Брэд Калвер, Тай Симпкинс, Сара Томко, Оджи Дьюк, Mattie Grace Campos

Мировая премьера: 10 марта 2012
Описание: Главный герой Томас Джейкобс изобретает способ проникать в память людей и просматривать их воспоминания «своими глазами». Так он может возвращаться в собственные воспоминания и снова переживать счастливые моменты своей жизни. Но однажды Том вынужден действовать в разрез своим моральным принципам и использовать своё изобретение, чтобы войти в воспоминания одного наркомана и в буквальном смысле слова увидеть, совершал ли он преступление, в котором его обвиняют. Однако по причине повреждённости сознания преступника наркотиками, Том оказывается пойман в ловушке внутри его головы. Теперь ему предстоит прожить в памяти наркомана почти четыре года, до тех пор, пока он не обнаружит долгожданную возможность побега.

Изображение User Rating: 6.292 (215)
Изображение User Rating: 5.90 (1 094)
Раздача группы: Изображение
Изображение
Качество: BDRip, 720p
Формат: Matroska
Видео: 3686 kb/s, 1280x534
Аудио: RRussian: AC3, 384 kb/s (6 ch) / English: DTS, 1510 kb/s (6 ch)
Субтитры: English
mediainfo
General
Unique ID : 196380401867140280006936640751361654511 (0x93BD7D595A6ED6278B25EDAE7268FEEF)
Complete name : Extracted.2012.P.BDRip.720p.IRONCLUB.mkv
Format : Matroska
Format version : Version 2
File size : 3.54 GiB
Duration : 1h 28mn
Overall bit rate : 5 693 Kbps
Movie name : IRONCLUB
Encoded date : UTC 2012-12-30 19:34:20
Writing application : mkvmerge v5.2.0 ('I can't explain') built on Dec 18 2011 18:12:03
Writing library : libebml v1.2.3 + libmatroska v1.3.0

Video
ID : 1
Format : AVC
Format/Info : Advanced Video Codec
Format profile : High@L4.1
Format settings, CABAC : Yes
Format settings, ReFrames : 12 frames
Codec ID : V_MPEG4/ISO/AVC
Duration : 1h 28mn
Bit rate : 3 686 Kbps
Width : 1 280 pixels
Height : 534 pixels
Display aspect ratio : 2.40:1
Frame rate : 23.976 fps
Color space : YUV
Chroma subsampling : 4:2:0
Bit depth : 8 bits
Scan type : Progressive
Bits/(Pixel*Frame) : 0.225
Stream size : 2.29 GiB (65%)
Title : Extracted.2012.720p.BluRay.DTS.x264-EbP
Language : English
Default : Yes
Forced : Yes

Audio #1
ID : 2
Format : AC-3
Format/Info : Audio Coding 3
Mode extension : CM (complete main)
Format settings, Endianness : Big
Codec ID : A_AC3
Duration : 1h 28mn
Bit rate mode : Constant
Bit rate : 384 Kbps
Channel(s) : 6 channels
Channel positions : Front: L C R, Side: L R, LFE
Sampling rate : 48.0 KHz
Bit depth : 16 bits
Compression mode : Lossy
Stream size : 244 MiB (7%)
Title : DD 5.1 @ 384 kbps - MVO, [BaiBako]
Language : Russian
Default : Yes
Forced : Yes

Audio #2
ID : 3
Format : DTS
Format/Info : Digital Theater Systems
Codec ID : A_DTS
Duration : 1h 28mn
Bit rate mode : Constant
Bit rate : 1 510 Kbps
Channel(s) : 6 channels
Channel positions : Front: L C R, Side: L R, LFE
Sampling rate : 48.0 KHz
Bit depth : 24 bits
Compression mode : Lossy
Stream size : 960 MiB (27%)
Title : DTS 5.1 @ 1536 kbps
Language : English
Default : No
Forced : No

Text
ID : 4
Format : UTF-8
Codec ID : S_TEXT/UTF8
Codec ID/Info : UTF-8 Plain Text
Language : English
Default : No
Forced : No

Menu
00:00:00.000 : en:00:00:00.000
00:08:10.949 : en:00:08:10.949
00:16:35.995 : en:00:16:35.995
00:25:47.004 : en:00:25:47.004
00:35:21.953 : en:00:35:21.953
00:45:43.991 : en:00:45:43.991
00:53:41.969 : en:00:53:41.969
01:02:02.928 : en:01:02:02.928
01:08:15.925 : en:01:08:15.925
01:14:02.897 : en:01:14:02.897
01:22:08.924 : en:01:22:08.924
01:25:06.893 : en:01:25:06.893
01:26:39.945 : en:01:26:39.945
Свернуть
Скриншоты

Изображение
Изображение
Изображение
Изображение
Свернуть
_________________
ИзображениеИзображение Изображение
Изображение
 tany1984 и di-ys1 нравится это.
Не в сети
Профиль  
 Добавлено: 2013-01-05 01:22 (спустя 5 дней)
Аватара пользователя
Стаж: 7 лет 5 месяцев
Сообщений: 136
Лайков: 2
посмотрел.фильм ничтяг!очень понравился :co_ol:
Не в сети
Профиль  
 Добавлено: 2013-01-29 21:42 (спустя 24 дня)
Стаж: 8 лет 1 месяц
Сообщений: 12
фильм 10 из 10! :co_ol: Режиссеру респект :co_ol: Всё продумано до мелочей, смотрится с удовольствием.
Не в сети
Профиль  
 Добавлено: 2013-01-30 05:18 (спустя 7 часов)
Стаж: 7 лет 2 месяца
Сообщений: 81
Хороший фильм.
Не в сети
Профиль  
 Добавлено: 2013-02-15 22:08 (спустя 16 дней)
Console V.I.P.
Аватара пользователя
Стаж: 9 лет
Сообщений: 1456
Спасибок: 690
Лайков: 12
Перевод тут какой-то левый чтоли? Это рип с русской лицензии? Или такой еще не существует?
_________________
МАСТЕР ПО ИГРОВЫМ КОНСОЛЯМ
ПРОДАЖА И МОДЕРНИЗАЦИЯ ИГРОВЫХ КОНСОЛЕЙ

УСЛУГИ И КОНТАКТЫ (нажать чтобы посмотреть)
icq: 378004868 тел: 89049149337
Не в сети
Профиль  
 Добавлено: 2013-02-16 13:05 (спустя 14 часов)
Модератор
Аватара пользователя
Стаж: 6 лет 10 месяцев
Возраст: 33
Сообщений: 5908
Спасибок: 61260
Лайков: 3540

vitalll:

Перевод тут какой-то левый чтоли? Это рип с русской лицензии? Или такой еще не существует?
Перевод: Профессиональный (многоголосый, закадровый) - BaiBako
_________________
ИзображениеИзображение Изображение
Изображение
Не в сети
Профиль  
 Добавлено: 2013-02-24 21:18 (спустя 8 дней)
Аватара пользователя
Стаж: 7 лет 8 месяцев
Сообщений: 33
Фильм понравился. Редко сейчас такой найдешь. Рекомендую. И перевод хороший. :co_ol:
Не в сети
Профиль  
 Добавлено: 2013-02-25 20:35 (спустя 23 часа)
Стаж: 7 лет 11 месяцев
Сообщений: 35
Сценарий сильный,а вот бюджет у фильма по ходу хиловатый и режиссер не айс. А сюжет очень сильно напоминает =Привидение=с Деми Мур.Только здесь с хепи эндом.
Не в сети
Профиль  
Начать новую темуОтветить на тему  [ Сообщений: 8 ] 
Вы не можете начинать темы
Вы не можете отвечать на сообщения
Вы не можете редактировать свои сообщения
Вы не можете удалять свои сообщения