Правила форума

  • В этом разделе создание новых тем Запрещено.
  • Для создания новых тем пользуйтесь Корневым разделом DVD и HD фильмы.
Начать новую темуОтветить на тему  [ Сообщений: 2 ] 
Торрент файл
Размер: 6.11 GB • Зарегистрирован: 4 года 2 месяца • Статус: Проверено
Скачан: 122 раза • Желающих скачать: 0 • Поблагодарили: 19 раз
 Раздают: 0  |  0 KB/s  ]   Качают: 0  |  0 KB/s  ] 
 Полного источника не было 1 год 3 месяца 
Сообщения
 Добавлено: 2012-09-06 06:42
Руководитель релиз-группы
Аватара пользователя
Стаж: 7 лет 4 месяца
Возраст: 31
Сообщений: 3407
Спасибок: 46729
Лайков: 5
Изображение

Жажда странствий / Страсть к перемене мест
Wanderlust


Год выпуска: 2012
Страна: США
Слоган: «Leave your baggage behind.»
Жанр: мелодрама, комедия
Продолжительность: 01:38:07
Перевод: Профессиональный (полное дублирование) [лицензия]
Режиссер: Дэвид Уэйн
Сценарий: Дэвид Уэйн, Кен Марино
Продюсер: Джудд Апатоу, Кен Марино, Пол Радд, Дэвид Уэйн, Дэвид Солдинджер
Оператор: Майкл Бонвилейн
Композитор: Крэйг Уэдрен
В ролях: Пол Радд, Дженнифер Энистон, Джастин Теру, Алан Алда, Малин Акерман, Кен Марино, Джо Ло Труглио, Кэтрин Хан, Керри Кенни, Лорен Эмброуз, Михаэлла Уоткинс, Джордан Пил
Сборы в мире: $21 450 353
Описание: Герои фильма Линда и Джордж - самые обыкновенные городские жители. И живут они в самом обыкновенном Нью-Йорке. Но что делать, когда быт и окружающие тебя люди, то, чем ты занимаешься, да и вообще всё вокруг, начинает тебя жутко раздражать? Выход один - сменить обстановку. Так и поступает семейная пара, меняя суматошный Нью-Йорк на более спокойный небольшой городок, чтобы отдохнуть, а заодно приобщиться к тамошней культуре.
Изображение
MPAA: Изображение
Релиз: Изображение Раздача группы: Изображение
Качество: BDRip, 720p
Формат: Matroska
Видео: AVC; 1280x694 (16:9); 7835 Kbps; 23,976 fps; 0,368 bit/pixel
Аудио №1: AC3; 384 Kbps; CBR; 6 ch Russian
Аудио №2: AC3; 640 Kbps; CBR; 6 ch English
Аудио №3: AAC LC-SBR; 2 ch Russian
Субтитры: Русские, английские, украинские
Изображение
mediainfo
Format : Matroska
Format version : Version 2
File size : 6.11 GiB
Duration : 1h 38mn
Overall bit rate : 8 911 Kbps
Movie name : IRONCLUB
Encoded date : UTC 2012-09-05 19:13:50
Writing application : mkvmerge v4.9.1 ('Ich will') сборка от Jul 11 2011 23:53:15
Writing library : libebml v1.2.1 + libmatroska v1.1.1

Video
ID : 1
Format : AVC
Format/Info : Advanced Video Codec
Format profile : High@L4.1
Format settings, CABAC : Yes
Format settings, ReFrames : 9 frames
Codec ID : V_MPEG4/ISO/AVC
Duration : 1h 38mn
Nominal bit rate : 7 835 Kbps
Width : 1 280 pixels
Height : 694 pixels
Display aspect ratio : 1.85:1
Frame rate : 23.976 fps
Color space : YUV
Chroma subsampling : 4:2:0
Bit depth : 8 bits
Scan type : Progressive
Bits/(Pixel*Frame) : 0.368
Title : Wanderlust.2012.720p.BluRay.DD5.1.x264-HiDt
Writing library : x264 core 125 r2200 999b753
Encoding settings : cabac=1 / ref=9 / deblock=1:-3:-3 / analyse=0x3:0x113 / me=tesa / subme=11 / psy=1 / psy_rd=0.99:0.01 / mixed_ref=1 / me_range=32 / chroma_me=1 / trellis=2 / 8x8dct=1 / cqm=0 / deadzone=21,11 / fast_pskip=0 / chroma_qp_offset=-3 / threads=12 / lookahead_threads=2 / sliced_threads=0 / nr=0 / decimate=1 / interlaced=0 / bluray_compat=0 / constrained_intra=0 / bframes=6 / b_pyramid=2 / b_adapt=2 / b_bias=0 / direct=3 / weightb=1 / open_gop=0 / weightp=2 / keyint=240 / keyint_min=23 / scenecut=40 / intra_refresh=0 / rc_lookahead=80 / rc=2pass / mbtree=1 / bitrate=7835 / ratetol=1.0 / qcomp=0.70 / qpmin=0 / qpmax=69 / qpstep=4 / cplxblur=20.0 / qblur=0.5 / vbv_maxrate=40000 / vbv_bufsize=40000 / nal_hrd=none / ip_ratio=1.40 / aq=1:0.80 / zones=134390,140515,b=0.1
Language : English
Default : Yes
Forced : Yes

Audio #1
ID : 2
Format : AC-3
Format/Info : Audio Coding 3
Mode extension : CM (complete main)
Format settings, Endianness : Big
Codec ID : A_AC3
Duration : 1h 38mn
Bit rate mode : Constant
Bit rate : 384 Kbps
Channel(s) : 6 channels
Channel positions : Front: L C R, Side: L R, LFE
Sampling rate : 48.0 KHz
Bit depth : 16 bits
Compression mode : Lossy
Stream size : 269 MiB (4%)
Title : DD 5.1 @ 384 kbps - Dub, R5
Language : Russian
Default : Yes
Forced : Yes

Audio #2
ID : 3
Format : AC-3
Format/Info : Audio Coding 3
Mode extension : CM (complete main)
Format settings, Endianness : Big
Codec ID : A_AC3
Duration : 1h 38mn
Bit rate mode : Constant
Bit rate : 640 Kbps
Channel(s) : 6 channels
Channel positions : Front: L C R, Side: L R, LFE
Sampling rate : 48.0 KHz
Bit depth : 16 bits
Compression mode : Lossy
Stream size : 449 MiB (7%)
Title : DD 5.1 @ 640 kbps
Language : English
Default : No
Forced : No

Audio #3
ID : 4
Format : AAC
Format/Info : Advanced Audio Codec
Format profile : HE-AAC / LC
Codec ID : A_AAC
Duration : 1h 38mn
Channel(s) : 2 channels
Channel positions : Front: L R
Sampling rate : 48.0 KHz / 24.0 KHz
Compression mode : Lossy
Title : Commentary
Language : English
Default : No
Forced : No

Text #1
ID : 5
Format : UTF-8
Codec ID : S_TEXT/UTF8
Codec ID/Info : UTF-8 Plain Text
Title : Forced
Language : Russian
Default : No
Forced : No

Text #2
ID : 6
Format : UTF-8
Codec ID : S_TEXT/UTF8
Codec ID/Info : UTF-8 Plain Text
Language : Russian
Default : No
Forced : No

Text #3
ID : 7
Format : UTF-8
Codec ID : S_TEXT/UTF8
Codec ID/Info : UTF-8 Plain Text
Language : Ukrainian
Default : No
Forced : No

Text #4
ID : 8
Format : UTF-8
Codec ID : S_TEXT/UTF8
Codec ID/Info : UTF-8 Plain Text
Language : English
Default : No
Forced : No

Menu
00:00:00.000 : en:Chapter 01
00:05:10.893 : en:Chapter 02
00:09:37.159 : en:Chapter 03
00:14:10.307 : en:Chapter 04
00:17:44.480 : en:Chapter 05
00:24:51.406 : en:Chapter 06
00:30:08.181 : en:Chapter 07
00:35:12.318 : en:Chapter 08
00:40:33.514 : en:Chapter 09
00:47:04.905 : en:Chapter 10
00:52:36.194 : en:Chapter 11
00:57:17.475 : en:Chapter 12
01:03:12.997 : en:Chapter 13
01:08:06.290 : en:Chapter 14
01:12:11.243 : en:Chapter 15
01:16:45.559 : en:Chapter 16
01:21:18.456 : en:Chapter 17
01:24:55.799 : en:Chapter 18
01:28:34.475 : en:Chapter 19
01:32:03.768 : en:Chapter 20
Свернуть
"Знаете ли Вы, что..."
  • Роль нудиста Уэйна Дэвидсона первоначально должен был сыграть Фред Армисен, который выбыл из проекта из-за конфликта в графике съёмок.
  • На роль Евы обсуждалась кандидатура Джессики Альбы.
  • На шесть недель съёмок в окрестностях городка Кларксвилль съёмочная группа была почти полностью отрезана от окружающего мира. Такого рода самоизоляция дала возможность актёрам больше общаться друг с другом и наладить взаимопонимание между собой. Для съёмок фильма в качестве массовки и дублёров продюсеры наняли группу жителей расположенной неподалёку нудистской колонии.
Свернуть
Скриншоты

Изображение

Изображение

Изображение

Изображение

Изображение
Свернуть
Не в сети
Профиль  
 Добавлено: 2012-09-15 23:20 (спустя 9 дней)
Стаж: 8 лет 9 месяцев
Сообщений: 8
Убойная комедия :co_ol:
Не в сети
Профиль  
Начать новую темуОтветить на тему  [ Сообщений: 2 ] 
Вы не можете начинать темы
Вы не можете отвечать на сообщения
Вы не можете редактировать свои сообщения
Вы не можете удалять свои сообщения