Правила форума

  • В этом разделе создание новых тем Запрещено.
  • Для создания новых тем пользуйтесь Корневым разделом DVD и HD фильмы.
Начать новую темуОтветить на тему  [ 1 сообщение ] 
Торрент файл
Размер: 13.37 GB • Зарегистрирован: 4 года 2 месяца • Статус: Проверено
Скачан: 49 раз • Желающих скачать: 0 • Поблагодарили: 6 раз
 Раздают: 0  |  0 KB/s  ]   Качают: 0  |  0 KB/s  ] 
 Полного источника не было 3 года 
Сообщения
 Добавлено: 2012-09-25 18:05
Модератор
Аватара пользователя
Стаж: 8 лет 1 месяц
Сообщений: 1991
Спасибок: 129865
Лайков: 20
Жажда странствий / Wanderlust


«Leave your baggage behind.»



Изображение
Год выпуска: 2012
Страна: Изображение США
Жанр: мелодрама, комедия
Продолжительность:
01:38:06

Перевод: Любительский (одноголосый)
Любительский (двухголосый)
Профессиональный (полное дублирование)
[лицензия]

Режиссер: Дэвид Уэйн
Сценарий: Дэвид Уэйн, Кен Марино
Продюсер: Джудд Апатоу, Кен Марино, Пол Радд, Дэвид Уэйн, Дэвид Солдинджер
Оператор: Майкл Бонвилейн
Композитор: Крэйг Уэдрен

В ролях:
Пол Радд (George Gergenblatt), Дженнифер Энистон (Linda Gergenblatt), Джастин Теру (Seth), Алан Алда (Carvin), Малин Акерман (Eva), Кен Марино (Rick), Джо Ло Труглио (Wayne), Кэтрин Хан (Karen), Керри Кенни (Kathy), Лорен Эмброуз (Almond), Михаэлла Уоткинс (Marissa), Джордан Пил (Rodney)
Дублёры: Ольга Плетнёва (Linda Gergenblatt) (Linda Gergenblatt), Денис Беспалый (Seth) (Seth), Андрей Бархударов (Wayne) (Wayne), Любовь Германова (Kathy) (Kathy), Жанна Никонова (Deena Schuster) (Deena Schuster)

Описание: Герои фильма Линда и Джордж - самые обыкновенные городские жители. И живут они в самом обыкновенном Нью-Йорке. Но что делать, когда быт и окружающие тебя люди, то, чем ты занимаешься, да и вообще всё вокруг, начинает тебя жутко раздражать? Выход один - сменить обстановку. Так и поступает семейная пара, меняя суматошный Нью-Йорк на более спокойный небольшой городок, чтобы отдохнуть, а заодно приобщиться к тамошней культуре.


Изображение: 5.521 (2 971)
Изображение: 5.60 (25 046)

MPAA: Изображение - Лицам до 17 лет обязательно присутствие взрослого

Доп. Информация

Сборы в США: $17 288 155
Сборы в мире: $21 450 353
Мировая премьера: 24 февраля 2012
Изображение Релиз на DVD: 13 сентября 2012, «Двадцатый Век Фокс СНГ»
Изображение Релиз на Blu-ray: 13 сентября 2012, «Двадцатый Век Фокс СНГ»

Свернуть


Качество: BDRip 1080p R5

Формат: MKV
Видео: AVC; 1920x1040 (16:9); 16800 Kbps; 23,976 fps; 0,351 bpp
Аудио №1: русский; AC3; 384 Kbps; CBR; 6 ch; 16 bit |Дубляж R5|
Аудио №2: русский; AC3; 448 Kbps; CBR; 6 ch; 16 bit |Двухголосый закадровый|
Аудио №3: русский; AC3; 384 Kbps; CBR; 6 ch; 16 bit |Одноголосый закадровый|
Аудио №4: английский; DTS; 1510 Kbps; CBR; 6 ch; 24 bit
Субтитры №1: русские
Субтитры №2: русские
Субтитры №3: украинские
Субтитры №4: английские
Субтитры №5: английские



Знаете ли Вы, что...
  • Роль нудиста Уэйна Дэвидсона первоначально должен был сыграть Фред Армисен, который выбыл из проекта из-за конфликта в графике съёмок.
  • На роль Евы обсуждалась кандидатура Джессики Альбы.
  • На шесть недель съёмок в окрестностях городка Кларксвилль съёмочная группа была почти полностью отрезана от окружающего мира. Такого рода самоизоляция дала возможность актёрам больше общаться друг с другом и наладить взаимопонимание между собой. Для съёмок фильма в качестве массовки и дублёров продюсеры наняли группу жителей расположенной неподалёку нудистской колонии.
Свернуть
BDInfo
Общее
Уникальный идентификатор : 224063596781917792629305956821506951850 (0xA891143C8D255C3592274183333B8AAA)
Полное имя : Wanderlust.2012.1080p.BluRay.x264.mkv
Формат : Matroska
Версия формата : Version 2
Размер файла : 13,4 Гбайт
Продолжительность : 1 ч. 38 м.
Общий поток : 19,5 Мбит/сек
Дата кодирования : UTC 2012-09-15 10:56:13
Программа кодирования : mkvmerge v4.9.1 ('Ich will') сборка от Jul 11 2011 23:53:15
Библиотека кодирования : libebml v1.2.1 + libmatroska v1.1.1
Видео
Идентификатор : 1
Формат : AVC
Формат/Информация : Advanced Video Codec
Профиль формата : High@L4.1
Параметр CABAC формата : Да
Параметр ReFrames формата : 5 кадров
Идентификатор кодека : V_MPEG4/ISO/AVC
Продолжительность : 1 ч. 38 м.
Битрейт : 16,8 Мбит/сек
Ширина : 1920 пикселей
Высота : 1040 пикселей
Соотношение сторон : 16:9
Частота кадров : 23,976 кадра/сек
Цветовое пространство : YUV
Субдискретизация насыщенности : 4:2:0
Битовая глубина : 8 бит
Тип развёртки : Прогрессивная
Бит/(Пиксели*Кадры) : 0.351
Размер потока : 11,2 Гбайт (84%)
Библиотека кодирования : x264 core 125 r2200 999b753
Настройки программы : cabac=1 / ref=5 / deblock=1:-3:-3 / analyse=0x3:0x113 / me=tesa / subme=11 / psy=1 / psy_rd=1.20:0.00 / mixed_ref=1 / me_range=16 / chroma_me=1 / trellis=2 / 8x8dct=1 / cqm=0 / deadzone=21,11 / fast_pskip=0 / chroma_qp_offset=-2 / threads=18 / lookahead_threads=3 / sliced_threads=0 / nr=0 / decimate=0 / interlaced=0 / bluray_compat=0 / constrained_intra=0 / bframes=8 / b_pyramid=2 / b_adapt=2 / b_bias=0 / direct=3 / weightb=1 / open_gop=0 / weightp=2 / keyint=240 / keyint_min=24 / scenecut=40 / intra_refresh=0 / rc_lookahead=240 / rc=2pass / mbtree=1 / bitrate=16800 / ratetol=1.0 / qcomp=0.70 / qpmin=0 / qpmax=69 / qpstep=4 / cplxblur=20.0 / qblur=0.5 / ip_ratio=1.40 / aq=1:0.85
Язык : English
Default : Да
Forced : Нет
Аудио #1
Идентификатор : 2
Формат : AC-3
Формат/Информация : Audio Coding 3
Расширение режима : CM (complete main)
Идентификатор кодека : A_AC3
Продолжительность : 1 ч. 38 м.
Вид битрейта : Постоянный
Битрейт : 384 Кбит/сек
Каналы : 6 каналов
Расположение каналов : Front: L C R, Side: L R, LFE
Частота : 48,0 КГц
Битовая глубина : 16 бит
Метод сжатия : С потерями
Размер потока : 269 Мбайт (2%)
Заголовок : Профессиональный (полное дублирование) R5
Язык : Russian
Default : Да
Forced : Нет
Аудио #2
Идентификатор : 3
Формат : AC-3
Формат/Информация : Audio Coding 3
Расширение режима : CM (complete main)
Идентификатор кодека : A_AC3
Продолжительность : 1 ч. 38 м.
Вид битрейта : Постоянный
Битрейт : 448 Кбит/сек
Каналы : 6 каналов
Расположение каналов : Front: L C R, Side: L R, LFE
Частота : 48,0 КГц
Битовая глубина : 16 бит
Метод сжатия : С потерями
Размер потока : 314 Мбайт (2%)
Заголовок : Любительский (двухголосый закадровый)
Язык : Russian
Default : Нет
Forced : Нет
Аудио #3
Идентификатор : 4
Формат : AC-3
Формат/Информация : Audio Coding 3
Расширение режима : CM (complete main)
Идентификатор кодека : A_AC3
Продолжительность : 1 ч. 38 м.
Вид битрейта : Постоянный
Битрейт : 384 Кбит/сек
Каналы : 6 каналов
Расположение каналов : Front: L C R, Side: L R, LFE
Частота : 48,0 КГц
Битовая глубина : 16 бит
Метод сжатия : С потерями
Размер потока : 269 Мбайт (2%)
Заголовок : Любительский (одноголосый закадровый)
Язык : Russian
Default : Нет
Forced : Нет
Аудио #4
Идентификатор : 5
Формат : DTS
Формат/Информация : Digital Theater Systems
Идентификатор кодека : A_DTS
Продолжительность : 1 ч. 38 м.
Вид битрейта : Постоянный
Битрейт : 1510 Кбит/сек
Каналы : 6 каналов
Расположение каналов : Front: L C R, Side: L R, LFE
Частота : 48,0 КГц
Битовая глубина : 24 бит
Метод сжатия : С потерями
Размер потока : 1,03 Гбайт (8%)
Заголовок : Оригинал
Язык : English
Default : Нет
Forced : Нет
Текст #1
Идентификатор : 6
Формат : UTF-8
Идентификатор кодека : S_TEXT/UTF8
Идентификатор кодека/Информация : UTF-8 Plain Text
Заголовок : Forced
Язык : Russian
Default : Да
Forced : Нет
Текст #2
Идентификатор : 7
Формат : UTF-8
Идентификатор кодека : S_TEXT/UTF8
Идентификатор кодека/Информация : UTF-8 Plain Text
Заголовок : Full
Язык : Russian
Default : Нет
Forced : Нет
Текст #3
Идентификатор : 8
Формат : UTF-8
Идентификатор кодека : S_TEXT/UTF8
Идентификатор кодека/Информация : UTF-8 Plain Text
Язык : Ukrainian
Default : Нет
Forced : Нет
Текст #4
Идентификатор : 9
Формат : UTF-8
Идентификатор кодека : S_TEXT/UTF8
Идентификатор кодека/Информация : UTF-8 Plain Text
Заголовок : Full
Язык : English
Default : Нет
Forced : Нет
Текст #5
Идентификатор : 10
Формат : UTF-8
Идентификатор кодека : S_TEXT/UTF8
Идентификатор кодека/Информация : UTF-8 Plain Text
Заголовок : Full-SDH
Язык : English
Default : Нет
Forced : Нет
Меню
00:00:00.000 : en:00:00:00.000
00:05:10.894 : en:00:05:10.894
00:09:37.160 : en:00:09:37.160
00:14:10.308 : en:00:14:10.308
00:17:44.480 : en:00:17:44.480
00:24:51.407 : en:00:24:51.407
00:30:08.181 : en:00:30:08.181
00:35:12.319 : en:00:35:12.319
00:40:33.514 : en:00:40:33.514
00:47:04.905 : en:00:47:04.905
00:52:36.195 : en:00:52:36.195
00:57:17.476 : en:00:57:17.476
01:03:12.998 : en:01:03:12.998
01:08:06.291 : en:01:08:06.291
01:12:11.244 : en:01:12:11.244
01:16:45.559 : en:01:16:45.559
01:21:18.457 : en:01:21:18.457
01:24:55.799 : en:01:24:55.799
01:28:34.476 : en:01:28:34.476
01:32:03.768 : en:01:32:03.768
Свернуть
Скриншоты
Изображение
Изображение
Изображение [
img]http://i40.fastpic.ru/thumb/2012/0925/37/_04f0a3e991e698f4a3384a0c2132e737.jpeg[/img]
Свернуть

_________________
Себе ты можешь не качать, но раздавать другим обязан!
Не в сети
Профиль  
Начать новую темуОтветить на тему  [ 1 сообщение ] 
Вы не можете начинать темы
Вы не можете отвечать на сообщения
Вы не можете редактировать свои сообщения
Вы не можете удалять свои сообщения