Правила форума

  • В этом разделе создание новых тем Запрещено.
  • Для создания новых тем пользуйтесь Корневым разделом DVD и HD фильмы.
Начать новую темуОтветить на тему  [ Сообщений: 2 ] 
Торрент файл
Размер: 13.68 GB • Зарегистрирован: 3 года 8 месяцев • Статус: Проверено
Скачан: 32 раза • Желающих скачать: 0 • Поблагодарили: 12 раз
 Раздают: 1  |  0 KB/s  ]   Качают: 0  |  0 KB/s  ] 
Сообщения
 Добавлено: 2013-03-31 20:25
Модератор релиз-группы
Аватара пользователя
Стаж: 7 лет 8 месяцев
Возраст: 29
Сообщений: 9789
Спасибок: 23733
Лайков: 103
Изображение

Жанна Д'Арк
Joan of Arc


Год выпуска: 1999
Страна: Франция
Жанр: драма, приключения, военный, биография, история
Продолжительность: 02:38:00
Перевод: Профессиональный (полное дублирование)
Режиссер: Люк Бессон
Сценарий: Эндрю Биркин, Люк Бессон
Продюсер: Патрис Леду, Люк Бессон, Марк Дженни, Олдрич Мэч
Оператор: Тьерри Арбогаст
Композитор: Эрик Серра
В ролях: Милла Йовович, Джон Малкович, Фэй Данауэй, Дастин Хоффман, Паскаль Греггори, Венсан Кассель, Чеки Карио, Ричард Райдингс, Десмонд Харрингтон, Тимоти Уэст, Рэб Аффлек, Стефан Альгу
Бюджет: $85 000 000
Сборы в США: $14 276 317
Сборы в мире: $66 976 317
Мировая премьера: 18 октября 1999
Релиз на DVD: 17 июня 2010, «Columbia/Sony»
Релиз на Blu-ray: 21 февраля 2009, «Columbia/Sony»
Описание: Реалистичная и пугающая обстановка батальных сцен, потрясающая глубина визуальных образов и волнующая музыка переносят зрителя на пятьсот лет назад, туда, где звуки молитв заглушаются звоном мечей и где беспросветные ночи озаряются пламенем костров, пожирающих невинных жертв.

Изображение User Rating: 7.463 (17 304)
Изображение User Rating: 6.30 (40 622)
MPAA: R - Лицам до 17 лет обязательно присутствие взрослого
Раздача группы: Изображение
Релиз группы: Изображение
Качество: BDRip, 1080p
Формат: MKV
Видео: AVC; 1920x800 (2.40:1); 10868 Kbps; 23,976 fps; 0,295 bit/pixel
Аудио №1: русский; AC3; 640 Kbps; CBR; 6 ch
Аудио №2: английский; AC3; 640 Kbps; CBR; 6 ch

Субтитры №1: русские
Субтитры №2: английские

mediainfo
Общее
Уникальный идентификатор : 205169651381031034185098612264371881609 (0x9A5A3CCE98DC642C9B719AF70BE60689)
Полное имя : D:\TORRENT\Zhanna.D.Ark.1999.H.264.BDRip.1080p.mkv
Формат : Matroska
Размер файла : 13,7 Гбайт
Продолжительность : 2 ч. 38 м.
Общий поток : 12,4 Мбит/сек
Дата кодирования : UTC 2008-12-26 06:33:12
Программа кодирования : mkvmerge v2.4.1 ('Use Me') built on Dec 13 2008 23:20:19
Библиотека кодирования : libebml v0.7.7 + libmatroska v0.8.1

Видео
Идентификатор : 1
Формат : AVC
Формат/Информация : Advanced Video Codec
Профиль формата : High@L4.1
Параметр CABAC формата : Да
Параметр ReFrames формата : 5 кадров
Идентификатор кодека : V_MPEG4/ISO/AVC
Продолжительность : 2 ч. 38 м.
Битрейт : 11,1 Мбит/сек
Ширина : 1920 пикс.
Высота : 800 пикс.
Соотношение сторон : 2,40:1
Частота кадров : 23,976 кадр/сек
Цветовое пространство : YUV
Подвыборка цветности : 4:2:0
Битовая глубина : 8 бит
Тип развёртки : Прогрессивная
Бит/(Пиксели*Кадры) : 0.302
Размер потока : 12,0 Гбайт (88%)
Заголовок : The Messenger: The Story of Joan of Arc
Библиотека кодирования : x264 core 65 r1055kMod 2b8d6a6
Настройки программы : cabac=1 / ref=5 / deblock=1:-3:-3 / analyse=0x3:0x113 / me=umh / subme=9 / psy_rd=1.2:0.1 / mixed_ref=1 / me_range=24 / chroma_me=1 / trellis=2 / 8x8dct=1 / cqm=0 / deadzone=21,11 / chroma_qp_offset=-3 / threads=6 / thread_queue=12 / nr=0 / decimate=0 / mbaff=0 / bframes=3 / b_pyramid=1 / b_adapt=2 / b_bias=0 / direct=3 / wpredb=1 / keyint=240 / keyint_min=24 / scenecut=40(pre) / rc=2pass / bitrate=11114 / ratetol=1.0 / qcomp=1.00 / qpmin=10 / qpmax=51 / qpstep=4 / cplxblur=20.0 / qblur=0.5 / vbv_maxrate=40000 / vbv_bufsize=62500 / ip_ratio=1.40 / pb_ratio=1.30 / aq=1:0.90
Язык : Russian

Аудио #1
Идентификатор : 2
Формат : AC-3
Формат/Информация : Audio Coding 3
Расширение режима : CM (complete main)
Идентификатор кодека : A_AC3
Продолжительность : 2 ч. 38 м.
Вид битрейта : Постоянный
Битрейт : 640 Кбит/сек
Каналы : 6 каналов
Расположение каналов : Front: L C R, Side: L R, LFE
Частота : 48,0 КГц
Битовая глубина : 16 бит
Метод сжатия : С потерями
Размер потока : 723 Мбайт (5%)
Заголовок : The Messenger: The Story of Joan of Arc
Язык : Russian

Аудио #2
Идентификатор : 3
Формат : AC-3
Формат/Информация : Audio Coding 3
Расширение режима : CM (complete main)
Идентификатор кодека : A_AC3
Продолжительность : 2 ч. 38 м.
Вид битрейта : Постоянный
Битрейт : 640 Кбит/сек
Каналы : 6 каналов
Расположение каналов : Front: L C R, Side: L R, LFE
Частота : 48,0 КГц
Битовая глубина : 16 бит
Метод сжатия : С потерями
Размер потока : 723 Мбайт (5%)
Заголовок : The Messenger: The Story of Joan of Arc
Язык : English

Текст #1
Идентификатор : 4
Формат : UTF-8
Идентификатор кодека : S_TEXT/UTF8
Идентификатор кодека/Информация : UTF-8 Plain Text
Заголовок : The Messenger: The Story of Joan of Arc
Язык : Russian

Текст #2
Идентификатор : 5
Формат : UTF-8
Идентификатор кодека : S_TEXT/UTF8
Идентификатор кодека/Информация : UTF-8 Plain Text
Заголовок : The Messenger: The Story of Joan of Arc
Язык : English


Свернуть
"Знаете ли Вы, что..."
  • Жиль де Рэ (герой Касселя) был реальным человеком, который после войны и смерти Жанны вернулся на свои земли. Спустя года, он был арестован по обвинению в убийствах более, чем ста молодых мальчиков и казнён. Некоторые историки верят, что его преступления стали основой для французской сказки «Синяя Борода» о человеке, что убивал своих жён и прятал их тела в его огромном доме.
  • Это последний фильм, в котором снялся Джозэф О`Конор.
  • Кэтрин Бигелоу отказалась от участия в фильме, когда Люк Бессон настоял, чтобы Мила Йовович, его жена на тот момент, сыграла главную роль.
Свернуть
Скриншоты

Изображение
Изображение
Изображение
Изображение
Изображение
Изображение
Изображение
Свернуть
Не в сети
Профиль  
 Добавлено: 2015-04-30 14:12 (спустя 2 года)
Top-releaser
Аватара пользователя
Стаж: 7 лет 4 месяца
Возраст: 38
Сообщений: 5348
Спасибок: 10080
Лайков: 2938
Жесткий, жестокий фильм......
Не в сети
Профиль  
Начать новую темуОтветить на тему  [ Сообщений: 2 ] 
Вы не можете начинать темы
Вы не можете отвечать на сообщения
Вы не можете редактировать свои сообщения
Вы не можете удалять свои сообщения