Правила форума

  • В этом разделе создание новых тем Запрещено.
  • Для создания новых тем пользуйтесь Корневым разделом DVD и HD фильмы.
Начать новую темуОтветить на тему  [ Сообщений: 2 ] 
Торрент файл
Размер: 10.28 GB • Зарегистрирован: 2 года 10 месяцев • Статус: Проверено
Скачан: 112 раз • Желающих скачать: 0 • Поблагодарили: 56 раз
 Раздают: 1  |  0 KB/s  ]   Качают: 0  |  0 KB/s  ] 
Сообщения
 Добавлено: 2014-01-10 09:57
Аватара пользователя
Стаж: 9 лет 1 месяц
Сообщений: 8018
Спасибок: 122275
Лайков: 1194
Жасмин / Blue Jasmine

Изображение


Год выпуска: 2013
Страна: Изображение США
Жанр: драма, комедия
Продолжительность: 01:38:25
Субтитры: Английские
Перевод: Профессиональный (полное дублирование) [Лицензия]


Режиссер: Вуди Аллен
Сценарий: Вуди Аллен
Продюсер: Летти Аронсон, Стивен Тененбаум, Эдвард Уолсон
Оператор: Хавьер Агирресаробе

В ролях: Кейт Бланшетт, Салли Хокинс, Алек Болдуин, Бобби Каннавейл, Питер Сарсгаард, Луис С.К., Эндрю Дайс Клэй, Дэниэл Дженкс, Майкл Стулбарг, Макс Рутерфорд

Описание: После того как все в ее жизни разваливается на части, в том числе и брак с богатым бизнесменом, светская жительница Нью-Йорка Жасмин переезжает в скромную квартиру сестры в Сан-Франциско, чтобы попытаться взять себя в руки и жить дальше.

Изображение Изображение

Раздача группы: Изображение

Качество: BDRip (1080p)
Формат: Matroska
Видео: MPEG-4 AVC, 11158 Кбит/с, 1920х800
Аудио №1: Русский (AC3, 48,0 КГц, 6 ch, 384 Кбит/c)
Аудио №2: Английский (DTS, 48,0 КГц, 6 ch, 1510 Кбит/c)

MediaInfo
Общее
Уникальный идентификатор : 249084133546587505005646801798600838765 (0xBB63DBF10D5266F1A5D5DAF7BF43CE6D)
Полное имя : C:\Фильмы\Blue.Jasmine.2013.BluRay.1080p..[R.G.Daredevil].mkv
Формат : Matroska
Версия формата : Version 2
Размер файла : 10,3 Гбайт
Продолжительность : 1 ч. 38 м.
Общий поток : 15,0 Мбит/сек
Название фильма : Blue.Jasmine.2013.BluRay.720p.DTS.x264-CHD
Дата кодирования : UTC 2014-01-10 05:22:48
Программа кодирования : mkvmerge v6.6.0 ('The Edge Of The In Between') built on Dec 1 2013 17:55:00
Библиотека кодирования : libebml v1.3.0 + libmatroska v1.4.1

Видео
Идентификатор : 1
Формат : AVC
Формат/Информация : Advanced Video Codec
Профиль формата : High@L4.1
Параметр CABAC формата : Да
Параметр ReFrames формата : 5 кадров
Идентификатор кодека : V_MPEG4/ISO/AVC
Продолжительность : 1 ч. 38 м.
Битрейт : 13,0 Мбит/сек
Ширина : 1920 пикселей
Высота : 800 пикселей
Соотношение сторон : 2,40:1
Режим частоты кадров : Постоянный
Частота кадров : 23,976 кадра/сек
Цветовое пространство : YUV
Субдискретизация насыщенности : 4:2:0
Битовая глубина : 8 бит
Тип развёртки : Прогрессивная
Бит/(Пиксели*Кадры) : 0.354
Размер потока : 8,77 Гбайт (85%)
Библиотека кодирования : x264 core 138 r2358 9e941d1
Настройки программы : cabac=1 / ref=5 / deblock=1:-3:-3 / analyse=0x3:0x113 / me=umh / subme=11 / psy=1 / psy_rd=1.05:0.10 / mixed_ref=1 / me_range=48 / chroma_me=1 / trellis=2 / 8x8dct=1 / cqm=0 / deadzone=21,11 / fast_pskip=0 / chroma_qp_offset=-2 / threads=18 / lookahead_threads=1 / sliced_threads=0 / nr=0 / decimate=1 / interlaced=0 / bluray_compat=0 / constrained_intra=0 / bframes=6 / b_pyramid=2 / b_adapt=2 / b_bias=0 / direct=3 / weightb=1 / open_gop=0 / weightp=2 / keyint=250 / keyint_min=23 / scenecut=40 / intra_refresh=0 / rc_lookahead=40 / rc=2pass / mbtree=0 / bitrate=13032 / ratetol=2.0 / qcomp=0.70 / qpmin=0 / qpmax=69 / qpstep=4 / cplxblur=20.0 / qblur=0.5 / vbv_maxrate=40000 / vbv_bufsize=30000 / nal_hrd=none / ip_ratio=1.40 / pb_ratio=1.30 / aq=2:1.00
Язык : English
Default : Да
Forced : Нет

Аудио #1
Идентификатор : 2
Формат : AC-3
Формат/Информация : Audio Coding 3
Расширение режима : CM (complete main)
Параметр Endianness формата : Big
Идентификатор кодека : A_AC3
Продолжительность : 1 ч. 38 м.
Вид битрейта : Постоянный
Битрейт : 384 Кбит/сек
Каналы : 6 каналов
Расположение каналов : Front: L C R, Side: L R, LFE
Частота : 48,0 КГц
Битовая глубина : 16 бит
Метод сжатия : С потерями
Размер потока : 270 Мбайт (3%)
Язык : Russian
Default : Да
Forced : Нет

Аудио #2
Идентификатор : 3
Формат : DTS
Формат/Информация : Digital Theater Systems
Режим : 16
Параметр Endianness формата : Big
Идентификатор кодека : A_DTS
Продолжительность : 1 ч. 38 м.
Вид битрейта : Постоянный
Битрейт : 1509 Кбит/сек
Каналы : 6 каналов
Расположение каналов : Front: L C R, Side: L R, LFE
Частота : 48,0 КГц
Битовая глубина : 24 бит
Метод сжатия : С потерями
Размер потока : 1,04 Гбайт (10%)
Язык : English
Default : Нет
Forced : Нет

Текст
Идентификатор : 4
Формат : UTF-8
Идентификатор кодека : S_TEXT/UTF8
Идентификатор кодека/Информация : UTF-8 Plain Text
Язык : English
Default : Нет
Forced : Нет

Меню
00:00:00.000 : en:00:00:00.000
00:07:01.254 : en:00:07:01.254
00:12:36.089 : en:00:12:36.089
00:18:37.992 : en:00:18:37.992
00:24:34.765 : en:00:24:34.765
00:30:16.231 : en:00:30:16.231
00:37:10.728 : en:00:37:10.728
00:41:18.017 : en:00:41:18.017
00:47:07.616 : en:00:47:07.616
00:53:33.419 : en:00:53:33.419
01:00:09.147 : en:01:00:09.147
01:05:10.406 : en:01:05:10.406
01:12:00.691 : en:01:12:00.691
01:17:59.174 : en:01:17:59.174
01:23:24.791 : en:01:23:24.791
01:29:52.137 : en:01:29:52.137
Свернуть
Знаете ли вы, что...
Брэдли Купер рассматривался на роль в этом фильме, но отказался из-за несогласованности расписаний съемок.

Это третий фильм Вуди Аллена, в котором он использовал широкий анаморфный формат (2,35:1) (первый фильм был «Манхэттен» (1979), а второй «Кое-что еще» (2003)).

Луис С. К. изначально пробовался на роль, которую сыграл Эндрю Дайс Клэй. Вуди Аллен посчитал Луиса слишком милым для этой роли и предложил ему другую.

Фильм вышел в США в ограниченный прокат в шести кинотеатрах Нью-Йорка и Лос-Анджелеса и собрал сумму в $612,767 в первые три дня релиза, установив тем самым рекорд кассовых сборов среди фильмов Вуди Аллена.

Сюжет фильма похож на пьесу известного американского драматурга Теннесси Уильямса «Трамвай «Желание»».

Из всех актеров только у Кейт Бланшетт и Салли Хокинс был на руках полный сценарий во время съемок.

Когда женщины находятся в саду у Чили, ноги Джинджер меняют свое положение после смены кадра. Они то скрещены, то нет.

Свернуть
Скриншоты
Изображение
Изображение
Изображение
Изображение
Свернуть
Не в сети
Профиль  
 Добавлено: 2014-03-31 23:36 (спустя 2 месяца 21 день)
Аватара пользователя
Стаж: 6 лет 9 месяцев
Сообщений: 39
Спасибо ! отличное кино!!!
Не в сети
Профиль  
Начать новую темуОтветить на тему  [ Сообщений: 2 ] 
Вы не можете начинать темы
Вы не можете отвечать на сообщения
Вы не можете редактировать свои сообщения
Вы не можете удалять свои сообщения