Правила форума

  • В этом разделе создание новых тем Запрещено.
  • Для создания новых тем пользуйтесь Корневым разделом DVD и HD фильмы.
Начать новую темуОтветить на тему  [ Сообщений: 10 ] 
Торрент файл
Размер: 7.37 GB • Зарегистрирован: 5 лет 6 месяцев • Статус: Проверено
Скачан: 139 раз • Желающих скачать: 0 • Поблагодарили: 45 раз
 Раздают: 1  |  0 KB/s  ]   Качают: 0  |  0 KB/s  ] 
Сообщения
 Добавлено: 2011-05-26 02:12
Модератор
Аватара пользователя
Стаж: 7 лет 9 месяцев
Сообщений: 4521
Спасибок: 112857
Лайков: 583
Железная хватка
True Grit

«Наказание приходит, так или иначе»

Изображение
Год выпуска: 2010
Страна: США, Paramount Pictures
Жанр: Драма, приключения, вестерн
Продолжительность: 01:50:20
Перевод: Дублированное [лицензия] + Оригинал (отдельно), Профессиональный (двухголосый закадровый) - [OzzTV]
Режиссёр: Итэн Коэн, Джоэл Коэн

В ролях: Джефф Бриджес, Мэтт Дэймон, Хейли Стайнфелд, Джош Бролин, Бэрри Пеппер, Дэкин Мэтьюз, Ярлат Конрой, Пол Рэй, Домналл Глисон, Элизабет Марвел

Описание: Сюжет рассказывает историю 14-летней девочки, стареющего судебного пристава Рустера Когберна и ещё одного законника. Вместе они идут по следам убийцы отца девочки, которые ведут во враждебную индейскую территорию.
Раздача: Изображение

Изображение 7.7/10 { 8 328 votes}
Изображение 8.0/10 (56,126 votes)

Качество: BDRip 720p
Формат: MKV
Видео: AVC, 1280х544, 23.976 fps, ~6967 kbps
Аудио 1: Russian, 48 kHz, AC3, 3/2 (L,C,R,l,r) + LFE ch, ~640 kbps avg -Дублированный [Blu-ray CEE]
Аудио#2: Russian, 48 kHz, AC3, 3/2 (L,C,R,l,r) + LFE ch, ~448 kbps avg -Двухголосый закадровый [OzzTV]
Аудио#3: English, 48 kHz, DTS, 3/2 (L,C,R,l,r) + LFE ch, ~1510 kbps avg -Оригинал
Субтитры: русские, английские
NFO
Format : Matroska
File size : 7.37 GiB
Duration : 1h 50mn
Overall bit rate : 9 568 Kbps
Encoded date : UTC 2011-05-25 22:41:41
Writing application : mkvmerge v4.6.0 ('Still Crazy After All These Years') сборка от Apr 1 2011 21:01:49
Writing library : libebml v1.2.0 + libmatroska v1.1.0

Video
ID : 1
Format : AVC
Format/Info : Advanced Video Codec
Format profile : High@L4.1
Format settings, CABAC : Yes
Format settings, ReFrames : 12 frames
Codec ID : V_MPEG4/ISO/AVC
Duration : 1h 50mn
Bit rate : 6 967 Kbps
Width : 1 280 pixels
Height : 544 pixels
Display aspect ratio : 2.35:1
Frame rate : 23.976 fps
Color space : YUV
Chroma subsampling : 4:2:0
Bit depth : 8 bits
Scan type : Progressive
Bits/(Pixel*Frame) : 0.417
Stream size : 5.23 GiB (71%)
Writing library : x264 core 114 r1924+495 ccd7045
Encoding settings : cabac=1 / ref=12 / deblock=1:-3:-3 / analyse=0x3:0x113 / me=umh / subme=10 / psy=1 / fade_compensate=0.00 / psy_rd=1.05:0.10 / mixed_ref=1 / me_range=32 / chroma_me=1 / trellis=2 / 8x8dct=1 / cqm=2 / deadzone=21,11 / fast_pskip=0 / chroma_qp_offset=-2 / threads=6 / sliced_threads=0 / nr=0 / decimate=1 / interlaced=0 / constrained_intra=0 / fgo=0 / bframes=6 / b_pyramid=2 / b_adapt=2 / b_bias=0 / direct=3 / weightb=1 / open_gop=0 / weightp=2 / keyint=250 / keyint_min=23 / scenecut=40 / intra_refresh=0 / rc_lookahead=60 / rc=2pass / mbtree=1 / bitrate=6967 / ratetol=1.0 / qcomp=0.60 / qpmin=1 / qpmax=63 / qpstep=4 / cplxblur=20.0 / qblur=0.5 / vbv_maxrate=40000 / vbv_bufsize=30000 / nal_hrd=none / ip_ratio=1.40 / aq=1:0.70
Language : English

Audio #1
ID : 2
Format : AC-3
Format/Info : Audio Coding 3
Mode extension : CM (complete main)
Codec ID : A_AC3
Duration : 1h 50mn
Bit rate mode : Constant
Bit rate : 640 Kbps
Channel(s) : 6 channels
Channel positions : Front: L C R, Side: L R, LFE
Sampling rate : 48.0 KHz
Bit depth : 16 bits
Stream size : 505 MiB (7%)
Title : DUB
Language : Russian

Audio #2
ID : 3
Format : AC-3
Format/Info : Audio Coding 3
Mode extension : CM (complete main)
Codec ID : A_AC3
Duration : 1h 50mn
Bit rate mode : Constant
Bit rate : 448 Kbps
Channel(s) : 6 channels
Channel positions : Front: L C R, Side: L R, LFE
Sampling rate : 48.0 KHz
Bit depth : 16 bits
Stream size : 354 MiB (5%)
Title : MVO [OzzTV]
Language : Russian

Audio #3
ID : 4
Format : DTS
Format/Info : Digital Theater Systems
Codec ID : A_DTS
Duration : 1h 50mn
Bit rate mode : Constant
Bit rate : 1 510 Kbps
Channel(s) : 6 channels
Channel positions : Front: L C R, Side: L R, LFE
Sampling rate : 48.0 KHz
Bit depth : 24 bits
Video delay : 55ms
Stream size : 1.16 GiB (16%)
Language : English

Text #1
ID : 5
Format : UTF-8
Codec ID : S_TEXT/UTF8
Codec ID/Info : UTF-8 Plain Text
Language : Russian

Text #2
ID : 6
Format : UTF-8
Codec ID : S_TEXT/UTF8
Codec ID/Info : UTF-8 Plain Text
Language : English
Свернуть
"Скриншоты"
Изображение

Изображение

Изображение
Свернуть
_________________
Изображение
Не в сети
Профиль  
 Добавлено: 2011-05-26 16:54 (спустя 14 часов)
Top-seeder
Аватара пользователя
Стаж: 8 лет 11 месяцев
Возраст: 29
Сообщений: 469
Спасибок: 45
Не плохой фильмец, мне понравился) :)
_________________
Ноут:
Acer Aspire TimelineUltra M5 проц i5 3317U, оперы 6гб, видеокарта GeForce 640m 1гб DDR5, ЖД 128SSD, и 1тб
Свернуть
ДК:
Усилитель Harman/Kardon HK-6500, Плазменная панель 50" LG 50PZ551, Ушки Sennheiser HD 449
Свернуть
Не в сети
Профиль  
 Добавлено: 2011-06-01 17:53 (спустя 6 дней)
Аватара пользователя
Стаж: 7 лет 9 месяцев
Сообщений: 140
Лайков: 26
отличный фильм :co_ol: спилберг как всегда на высоте :co_ol: и подбор актёров отменный....
Не в сети
Профиль  
 Добавлено: 2011-06-19 18:40 (спустя 18 дней)
Аватара пользователя
Стаж: 8 лет 7 месяцев
Сообщений: 58
а причём тут спилберг?)
Не в сети
Профиль  
 Добавлено: 2011-07-20 21:51 (спустя 1 месяц 1 день)
Аватара пользователя
Стаж: 8 лет 5 месяцев
Сообщений: 56
Лайков: 1
ну может быть он был продюсером))))

а фильм в целом не плох, даже очень, с двояким смыслом)
ковбойства мало, больше уделено внимания сюжетной линии...
в общем советую!
диагноз - в коллекцию))
7/10
Не в сети
Профиль  
 Добавлено: 2014-05-02 14:12 (спустя 2 года 9 месяцев)
Аватара пользователя
Стаж: 5 лет 10 месяцев
Возраст: 27
Сообщений: 26
Ребят, встаньте на раздачу плиз!
Не в сети
Профиль  
 Добавлено: 2014-05-07 20:01 (спустя 5 дней)
Аватара пользователя
Стаж: 5 лет 8 месяцев
Сообщений: 16
АУУУУУ!! Где раздача!!
Не в сети
Профиль  
 Добавлено: 2014-05-18 21:57 (спустя 11 дней)
Аватара пользователя
Стаж: 8 лет 6 месяцев
Сообщений: 32
....раздача - труп? :sh_ok:
Не в сети
Профиль  
 Добавлено: 2014-05-18 22:38 (спустя 41 минута)
Аватара пользователя
Стаж: 8 лет 2 месяца
Сообщений: 73
Спасибок: 3
Лайков: 1
раздайте!!!!!
Не в сети
Профиль  
 Добавлено: 2014-05-19 17:01 (спустя 18 часов)
Аватара пользователя
Стаж: 8 лет 6 месяцев
Сообщений: 32
Придётся видать на рутрекер идти или ещё куда....
Не в сети
Профиль  
Начать новую темуОтветить на тему  [ Сообщений: 10 ] 
Вы не можете начинать темы
Вы не можете отвечать на сообщения
Вы не можете редактировать свои сообщения
Вы не можете удалять свои сообщения