Правила форума

  • В этом разделе создание новых тем Запрещено.
  • Для создания новых тем пользуйтесь Корневым разделом DVD и HD фильмы.
Начать новую темуОтветить на тему  [ Сообщений: 3 ] 
Торрент файл
Размер: 11.71 GB • Зарегистрирован: 5 лет 6 месяцев • Статус: Проверено
Скачан: 266 раз • Желающих скачать: 0 • Поблагодарили: 49 раз
 Раздают: 0  |  0 KB/s  ]   Качают: 0  |  0 KB/s  ] 
 Полного источника не было 3 года 2 месяца 
Сообщения
 Добавлено: 2011-05-26 08:01
Аватара пользователя
Стаж: 8 лет 10 месяцев
Сообщений: 2032
Спасибок: 53741
Лайков: 6
Железная хватка
True Grit

«Наказание приходит, так или иначе»

Изображение
Год выпуска: 2010
Страна: США, Paramount Pictures
Жанр: Драма, приключения, вестерн
Продолжительность: 01:50:20
Перевод: Дублированное [лицензия] + Оригинал + Профессиональный (двухголосый закадровый) - [OzzTV]
Режиссёр: Итэн Коэн, Джоэл Коэн

В ролях: Джефф Бриджес, Мэтт Дэймон, Хейли Стайнфелд, Джош Бролин, Бэрри Пеппер, Дэкин Мэтьюз, Ярлат Конрой, Пол Рэй, Домналл Глисон, Элизабет Марвел

Описание: Основная сюжетная линия фильма строиться вокруг 14-летней девочки Мэтти Росс, которая отправляется на поиски убийцы своего отца — Тома Чейни. Она уговаривает федерального маршала, алкоголика Когберна по кличке «задира» чтобы тот помог девочки в поисках Тома Чейни, также компанию им составляет техасский рейнджер Лебуф.
Раздача: Изображение

Изображение 7.7/10 { 8 328 votes}
Изображение 8.0/10 (56,126 votes)

Качество: BDRip 1080p [CHD]
Формат: MKV
Видео: 1920х816, 23.976 fps, ~12600 kbps, H.264
Аудио 1: Russian, 48 kHz, AC3, 3/2 (L,C,R,l,r) + LFE ch, ~640 kbps avg -Дублированный [Blu-ray CEE]
Аудио#2: Russian, 48 kHz, AC3, 3/2 (L,C,R,l,r) + LFE ch, ~448 kbps avg -Двухголосый закадровый [OzzTV]
Аудио#3: English, 48 kHz, DTS, 3/2 (L,C,R,l,r) + LFE ch, ~1510 kbps avg -Оригинал
Субтитры: русские [Blu-ray CEE], английские
NFO
Format : Matroska
File size : 11.7 GiB
Duration : 1h 50mn
Overall bit rate : 15.2 Mbps
Encoded date : UTC 2011-05-25 22:33:27
Writing application : mkvmerge v4.6.0 ('Still Crazy After All These Years') сборка от Apr 1 2011 21:01:49
Writing library : libebml v1.2.0 + libmatroska v1.1.0

Video
ID : 1
Format : AVC
Format/Info : Advanced Video Codec
Format profile : High@L4.1
Format settings, CABAC : Yes
Format settings, ReFrames : 5 frames
Codec ID : V_MPEG4/ISO/AVC
Duration : 1h 50mn
Bit rate : 12.6 Mbps
Width : 1 920 pixels
Height : 816 pixels
Display aspect ratio : 2.35:1
Frame rate : 23.976 fps
Color space : YUV
Chroma subsampling : 4:2:0
Bit depth : 8 bits
Scan type : Progressive
Bits/(Pixel*Frame) : 0.335
Stream size : 9.48 GiB (81%)
Writing library : x264 core 114 r1924 08d04a4
Encoding settings : cabac=1 / ref=5 / deblock=1:-3:-3 / analyse=0x3:0x113 / me=umh / subme=10 / psy=1 / psy_rd=1.05:0.10 / mixed_ref=1 / me_range=48 / chroma_me=1 / trellis=2 / 8x8dct=1 / cqm=2 / deadzone=21,11 / fast_pskip=0 / chroma_qp_offset=-2 / threads=12 / sliced_threads=0 / nr=0 / decimate=1 / interlaced=0 / constrained_intra=0 / bframes=6 / b_pyramid=2 / b_adapt=2 / b_bias=0 / direct=3 / weightb=1 / open_gop=0 / weightp=2 / keyint=250 / keyint_min=23 / scenecut=40 / intra_refresh=0 / rc_lookahead=60 / rc=2pass / mbtree=1 / bitrate=12598 / ratetol=1.0 / qcomp=0.70 / qpmin=1 / qpmax=63 / qpstep=4 / cplxblur=20.0 / qblur=0.5 / vbv_maxrate=40000 / vbv_bufsize=40000 / nal_hrd=none / ip_ratio=1.40 / aq=2:0.80
Language : English

Audio #1
ID : 2
Format : AC-3
Format/Info : Audio Coding 3
Mode extension : CM (complete main)
Codec ID : A_AC3
Duration : 1h 50mn
Bit rate mode : Constant
Bit rate : 640 Kbps
Channel(s) : 6 channels
Channel positions : Front: L C R, Side: L R, LFE
Sampling rate : 48.0 KHz
Bit depth : 16 bits
Stream size : 505 MiB (4%)
Title : DUB
Language : Russian

Audio #2
ID : 3
Format : AC-3
Format/Info : Audio Coding 3
Mode extension : CM (complete main)
Codec ID : A_AC3
Duration : 1h 50mn
Bit rate mode : Constant
Bit rate : 448 Kbps
Channel(s) : 6 channels
Channel positions : Front: L C R, Side: L R, LFE
Sampling rate : 48.0 KHz
Bit depth : 16 bits
Stream size : 354 MiB (3%)
Title : MVO [OzzTV]
Language : Russian

Audio #3
ID : 4
Format : DTS
Format/Info : Digital Theater Systems
Codec ID : A_DTS
Duration : 1h 50mn
Bit rate mode : Constant
Bit rate : 1 510 Kbps
Channel(s) : 6 channels
Channel positions : Front: L C R, Side: L R, LFE
Sampling rate : 48.0 KHz
Bit depth : 24 bits
Video delay : 44ms
Stream size : 1.16 GiB (10%)
Language : English

Text #1
ID : 5
Format : UTF-8
Codec ID : S_TEXT/UTF8
Codec ID/Info : UTF-8 Plain Text
Language : Russian

Text #2
ID : 6
Format : UTF-8
Codec ID : S_TEXT/UTF8
Codec ID/Info : UTF-8 Plain Text
Language : English
Свернуть
"Скриншоты"
Изображение

Изображение

Изображение
Свернуть
Не в сети
Профиль  
 Добавлено: 2011-05-26 12:09 (спустя 4 часа)
Ацкий сотона
Аватара пользователя
Стаж: 8 лет 10 месяцев
Возраст: 28
Сообщений: 819
Спасибок: 12
Лайков: 1
Спасибо за релиз , говорят фильм стоит того , чтобы посмотреть .
З.Ы. Ждём золота и забираем :-D
_________________
ИзображениеИзображениеИзображениеИзображениеИзображение
Не в сети
Профиль  
 Добавлено: 2011-05-27 20:25 (спустя 1 день 8 часов)
Аватара пользователя
Стаж: 8 лет 7 месяцев
Сообщений: 80
Спасибок: 41
Да. Фильм стоящий, любителям Коэнов смотреть !!!!!!!!!!!
Не в сети
Профиль  
Начать новую темуОтветить на тему  [ Сообщений: 3 ] 
Вы не можете начинать темы
Вы не можете отвечать на сообщения
Вы не можете редактировать свои сообщения
Вы не можете удалять свои сообщения