Правила форума

  • В этом разделе создание новых тем Запрещено.
  • Для создания новых тем пользуйтесь Корневым разделом DVD и HD фильмы.
Начать новую темуОтветить на тему  [ 1 сообщение ] 
Торрент файл
Размер: 5.55 GB • Зарегистрирован: 4 года 7 месяцев • Статус: Проверено
Скачан: 41 раз • Желающих скачать: 0 • Поблагодарили: 9 раз
 Раздают: 0  |  0 KB/s  ]   Качают: 0  |  0 KB/s  ] 
 Полного источника не было 1 год 
Сообщения
 Добавлено: 2012-04-30 10:05
Инквизитор
Аватара пользователя
Стаж: 8 лет 8 месяцев
Сообщений: 3753
Спасибок: 28360
Лайков: 9
Изображение

Железная леди / The Iron Lady


Год выпуска: 2011
Страна: Франция, Великобритания
Слоган: «Never compromise»
Жанр: драма, биография
Продолжительность: 01:44:58
Перевод: Оригинальный, Авторский (Сербин Юрий)
Режиссер: Филлида Ллойд
Сценарий: Эби Морган
Продюсер: Дамиан Джонс, Франсуа Ивернель, Адам Кулик
Оператор: Эллиот Дэвис
Композитор: Томас Ньюман
В ролях: Мэрил Стрип, Джим Броудбент, Сьюзэн Браун, Элис Да Кунья, Фиби Уоллер-Бридж, Айэйн Глен, Александра Роач, Виктория Бьюик, Эмма Дьюхерст, Оливия Колман
Бюджет: $13 000 000
Сборы в США: $30 004 924
Сборы в России: $1 025 961
Сборы в мире: $114 943 631
Описание: События картины развернутся в 1982 году. Тогда премьер-министр Великобритании Маргарет Тэтчер пыталась спасти свою карьеру накануне Фолклендской войны.
Изображение
MPAA:
Мировая премьера: 26 декабря 2011
Релиз на DVD: 30 мая 2012, «Кармен Видео»
Релиз на Blu-ray: 30 мая 2012, «Кармен Видео»
Релиз, раздача группы: Изображение, Изображение
Качество: BDRip, 720p
Формат: Matroska
Видео: AVC; 1280x544 (2.35:1); 6133 Kbps; 23,976 fps; 0,367 bit/pixel
Аудио №1: Russian; AC3; 640 Kbps; CBR; 6 ch
Аудио №2: AC3; 640 Kbps; CBR; 6 ch

Субтитры №1:
Субтитры №2: Spanish

"Знаете ли Вы, что..."
  • Вместо здания британского парламента Вестминстерского дворца при съёмках было использовано визуально похожее на него строение Манчестерской ратуши. Эта неоготическое викторианское здание было построено в 1877 году и ранее неоднократно использовалось с такой целью при съёмках голливудских и британских кинолент.
  • В процессе подготовки к своей роли Мэрил Стрип в январе 2011 года посетила одно из заседаний палаты Общин британского парламента. Там она наблюдала дебаты между премьер-министром Великобритании Дэвидом Кэмероном и лидером оппозиции Эдом Милибэндом.
  • Трое из задействованных в фильм актёров Майкл Кокрейн, Руперт Ванситтарт и Джон Сессионс также снимались в телевизионном байопике «Маргарет Тэтчер» (2009).
Свернуть
M.I.
Общее
Уникальный идентификатор                 : 251095179567506696929190395920611644020 (0xBCE72C2A6772AB0FA7A10CC345A19274)
Полное имя                               : E:\Фильмы\The.Iron.Lady.2011.720p.BluRay.Rus.Eng.HDCLUB.mkv
Формат                                   : Matroska
Версия формата                           : Version 2
Размер файла                             : 5,55 Гбайт
Продолжительность                        : 1 ч. 44 м.
Общий поток                              : 7564 Кбит/сек
Название фильма                          : The Iron Lady (2011) - Release for HDCLUB
Дата кодирования                         : UTC 2012-04-29 13:10:06
Программа кодирования                    : mkvmerge v5.5.0 ('Healer') built on Apr  6 2012 21:43:24
Библиотека кодирования                   : libebml v1.2.3 + libmatroska v1.3.0

Видео
Идентификатор                            : 1
Формат                                   : AVC
Формат/Информация                        : Advanced Video Codec
Профиль формата                          : High@L4.1
Параметр CABAC формата                   : Да
Параметр ReFrames формата                : 12 кадров
Идентификатор кодека                     : V_MPEG4/ISO/AVC
Продолжительность                        : 1 ч. 44 м.
Битрейт                                  : 6133 Кбит/сек
Ширина                                   : 1280 пикселей
Высота                                   : 544 пикселя
Соотношение сторон                       : 2,35:1
Частота кадров                           : 23,976 кадра/сек
Цветовое пространство                    : YUV
Субдискретизация насыщенности            : 4:2:0
Битовая глубина                          : 8 бит
Тип развёртки                            : Прогрессивная
Бит/(Пиксели*Кадры)                      : 0.367
Размер потока                            : 4,50 Гбайт (81%)
Заголовок                                : The Iron Lady (2011) - Release for HDCLUB
Библиотека кодирования                   : x264 core 122 r2184 5c85e0a
Настройки программы                      : cabac=1 / ref=12 / deblock=1:-3:-3 / analyse=0x3:0x113 / me=esa / subme=10 / psy=1 / psy_rd=1.05:0.10 / mixed_ref=1 / me_range=24 / chroma_me=1 / trellis=2 / 8x8dct=1 / cqm=0 / deadzone=21,11 / fast_pskip=0 / chroma_qp_offset=-3 / threads=6 / sliced_threads=0 / nr=0 / decimate=0 / interlaced=0 / bluray_compat=0 / constrained_intra=0 / bframes=7 / b_pyramid=2 / b_adapt=2 / b_bias=0 / direct=3 / weightb=1 / open_gop=0 / weightp=2 / keyint=250 / keyint_min=23 / scenecut=40 / intra_refresh=0 / rc_lookahead=60 / rc=crf / mbtree=0 / crf=16.0 / qcomp=0.60 / qpmin=0 / qpmax=69 / qpstep=4 / vbv_maxrate=40000 / vbv_bufsize=30000 / crf_max=0.0 / nal_hrd=none / ip_ratio=1.40 / pb_ratio=1.30 / aq=1:0.70 / zones=144410,151007,b=0.3
Язык                                     : English
Default                                  : Да
Forced                                   : Нет
Основные цвета                           : BT.709-5, BT.1361, IEC 61966-2-4, SMPTE RP177
Характеристики трансфера                 : BT.709-5, BT.1361
Коэффициенты матрицы                     : BT.709-5, BT.1361, IEC 61966-2-4 709, SMPTE RP177

Аудио #1
Идентификатор                            : 2
Формат                                   : AC-3
Формат/Информация                        : Audio Coding 3
Расширение режима                        : CM (complete main)
Идентификатор кодека                     : A_AC3
Продолжительность                        : 1 ч. 44 м.
Вид битрейта                             : Постоянный
Битрейт                                  : 640 Кбит/сек
Каналы                                   : 6 каналов
Расположение каналов                     : Front: L C R, Side: L R, LFE
Частота                                  : 48,0 КГц
Битовая глубина                          : 16 бит
Метод сжатия                             : С потерями
Размер потока                            : 481 Мбайт (8%)
Заголовок                                : Ю.Сербин
Язык                                     : Russian
Default                                  : Да
Forced                                   : Нет

Аудио #2
Идентификатор                            : 3
Формат                                   : AC-3
Формат/Информация                        : Audio Coding 3
Расширение режима                        : CM (complete main)
Идентификатор кодека                     : A_AC3
Продолжительность                        : 1 ч. 44 м.
Вид битрейта                             : Постоянный
Битрейт                                  : 640 Кбит/сек
Каналы                                   : 6 каналов
Расположение каналов                     : Front: L C R, Side: L R, LFE
Частота                                  : 48,0 КГц
Битовая глубина                          : 16 бит
Метод сжатия                             : С потерями
Размер потока                            : 481 Мбайт (8%)
Язык                                     : English
Default                                  : Нет
Forced                                   : Нет

Текст #1
Идентификатор                            : 4
Формат                                   : UTF-8
Идентификатор кодека                     : S_TEXT/UTF8
Идентификатор кодека/Информация          : UTF-8 Plain Text
Язык                                     : English
Default                                  : Нет
Forced                                   : Нет

Текст #2
Идентификатор                            : 5
Формат                                   : UTF-8
Идентификатор кодека                     : S_TEXT/UTF8
Идентификатор кодека/Информация          : UTF-8 Plain Text
Язык                                     : Spanish
Default                                  : Нет
Forced                                   : Нет

Меню
00:00:00.000                             : :Chapter 01
00:03:34.423                             : :Chapter 02
00:08:15.495                             : :Chapter 03
00:15:19.877                             : :Chapter 04
00:23:51.430                             : :Chapter 05
00:30:36.334                             : :Chapter 06
00:37:03.555                             : :Chapter 07
00:44:10.690                             : :Chapter 08
00:50:20.017                             : :Chapter 09
00:56:51.450                             : :Chapter 10
01:02:38.088                             : :Chapter 11
01:09:52.814                             : :Chapter 12
01:18:29.288                             : :Chapter 13
01:24:49.751                             : :Chapter 14
01:31:05.126                             : :Chapter 15
01:38:43.584                             : :Chapter 16
Свернуть
Скриншоты

Изображение
Изображение
Изображение
Изображение
Свернуть

Не в сети
Профиль  
Начать новую темуОтветить на тему  [ 1 сообщение ] 
Вы не можете начинать темы
Вы не можете отвечать на сообщения
Вы не можете редактировать свои сообщения
Вы не можете удалять свои сообщения