Правила форума

  • В этом разделе создание новых тем Запрещено.
  • Для создания новых тем пользуйтесь Корневым разделом DVD и HD фильмы.
Начать новую темуОтветить на тему  [ Сообщений: 6 ] 
Торрент файл
Размер: 12.52 GB • Зарегистрирован: 3 года 3 месяца • Статус: Проверено
Скачан: 809 раз • Желающих скачать: 0 • Поблагодарили: 222 раза
 Раздают: 0  |  0 KB/s  ]   Качают: 0  |  0 KB/s  ] 
 Полного источника не было 12 часов 
Сообщения
 Добавлено: 2013-08-20 10:26
Top-releaser
Аватара пользователя
Стаж: 8 лет 9 месяцев
Сообщений: 479
Спасибок: 20188
Лайков: 16
Изображение

Изображение

Iron Man 3


«Герой будет сражен»

Год выпуска: 2013
Страна: Изображение США, Изображение Китай; Fairview Entertainment, Marvel Studios Inc., Noble Media, Outlaw Sinema, Paramount Pictures
Жанр: Фантастика, боевик, приключения
Продолжительность: 02:10:32
Перевод: Профессиональный (дублированный) [Лицензия], Оригинал
Субтитры: Английские

Режиссёр: Шейн Блэк / Shane Black

В ролях: Роберт Дауни-мл., Гвинет Пэлтроу, Дон Чидл, Гай Пирс, Бен Кингсли, Ребекка Холл, Джеймс Бэдж Дэйл, Уильям Сэдлер, Стефани Чостак, Эштон Хэмилтон, Ти Симпкинс, Стэн Ли, Джон Фавро и др.

Описание: Когда мир Старка рушится на его глазах по вине неизвестных противников, Тони жаждет найти виновных и свести с ними счеты. Оказавшись в безвыходной ситуации, Старк может рассчитывать только на себя и свою изобретательность, чтобы защитить тех, кто ему дорог. Это становится настоящим испытанием для героя, которому придется не только сражаться с коварным врагом, но и разобраться в себе, чтобы найти ответ на вопрос, который давно его тревожит: что важнее — человек или костюм?


Качество: BDRip 1080p R5
Формат: MKV

Видео: AVC at 11,6 Мбит/сек, 1920 x 800 (2.400) at 23.976 fps
Аудио 1: AC-3 at 640 Кбит/сек, 6 канала(ов), 48,0 КГц [Дубляж]
Аудио 2: DTS at 1509 Кбит/сек, 6 канала(ов), 48,0 КГц [Оригинал]
Раздача: Изображение

Изображение


Изображение
MediaInfo

Общее
Уникальный идентификатор : 232716824440498992175603822487117001976 (0xAF13A14C9CD75BB6BAD718505F5C74F8)
Полное имя : C:\Users\Домашний\Desktop\Jelezniy.Chelovek.3.2013.BDRip.1080p[nntt].mkv
Формат : Matroska
Размер файла : 12,5 Гбайт
Продолжительность : 2 ч. 10 м.
Общий поток : 13,7 Мбит/сек
Дата кодирования : UTC 2013-08-20 04:16:41
Программа кодирования : mkvmerge v5.2.0 ('I can't explain') built on Dec 18 2011 18:12:03
Библиотека кодирования : libebml v1.2.3 + libmatroska v1.3.0

Видео
Идентификатор : 1
Формат : AVC
Формат/Информация : Advanced Video Codec
Профиль формата : High@L4.1
Параметр CABAC формата : Да
Параметр ReFrames формата : 5 кадры
Идентификатор кодека : V_MPEG4/ISO/AVC
Продолжительность : 2 ч. 10 м.
Битрейт : 11,6 Мбит/сек
Ширина : 1920 пикс.
Высота : 800 пикс.
Соотношение сторон : 2,40:1
Частота кадров : 23,976 кадр/сек
Цветовое пространство : YUV
Подвыборка цветности : 4:2:0
Битовая глубина : 8 бит
Тип развёртки : Прогрессивная
Бит/(Пиксели*Кадры) : 0.316
Размер потока : 10,3 Гбайт (82%)
Библиотека кодирования : x264 core 130 r2273 b3065e6
Настройки программы : cabac=1 / ref=5 / deblock=1:-3:-3 / analyse=0x3:0x113 / me=umh / subme=8 / psy=1 / psy_rd=1.00:0.00 / mixed_ref=1 / me_range=16 / chroma_me=1 / trellis=1 / 8x8dct=1 / cqm=0 / deadzone=21,11 / fast_pskip=1 / chroma_qp_offset=-2 / threads=64 / lookahead_threads=6 / sliced_threads=0 / nr=0 / decimate=1 / interlaced=0 / bluray_compat=0 / constrained_intra=0 / bframes=3 / b_pyramid=2 / b_adapt=2 / b_bias=0 / direct=3 / weightb=1 / open_gop=0 / weightp=2 / keyint=240 / keyint_min=23 / scenecut=40 / intra_refresh=0 / rc=abr / mbtree=0 / bitrate=11642 / ratetol=1.0 / qcomp=0.60 / qpmin=0 / qpmax=69 / qpstep=4 / ip_ratio=1.40 / pb_ratio=1.30 / aq=1:1.00
Язык : English

Аудио #1
Идентификатор : 2
Формат : AC-3
Формат/Информация : Audio Coding 3
Расширение режима : CM (complete main)
Идентификатор кодека : A_AC3
Продолжительность : 2 ч. 10 м.
Вид битрейта : Постоянный
Битрейт : 640 Кбит/сек
Канал(ы) : 6 канала(ов)
Расположение каналов : Front: L C R, Side: L R, LFE
Частота : 48,0 КГц
Битовая глубина : 16 бит
Метод сжатия : С потерями
Размер потока : 598 Мбайт (5%)
Язык : Russian

Аудио #2
Идентификатор : 3
Формат : DTS
Формат/Информация : Digital Theater Systems
Идентификатор кодека : A_DTS
Продолжительность : 2 ч. 10 м.
Вид битрейта : Постоянный
Битрейт : 1510 Кбит/сек
Канал(ы) : 6 канала(ов)
Расположение каналов : Front: L C R, Side: L R, LFE
Частота : 48,0 КГц
Битовая глубина : 24 бит
Метод сжатия : С потерями
Размер потока : 1,38 Гбайт (11%)
Язык : English

Текст
Идентификатор : 4
Формат : UTF-8
Идентификатор кодека : S_TEXT/UTF8
Идентификатор кодека/Информация : UTF-8 Plain Text
Язык : English

Меню
00:00:00.000 : en:00:00:00.000
00:04:52.751 : en:00:04:52.751
00:07:55.433 : en:00:07:55.433
00:12:12.440 : en:00:12:12.440
00:19:04.101 : en:00:19:04.101
00:23:47.885 : en:00:23:47.885
00:29:47.703 : en:00:29:47.703
00:39:46.384 : en:00:39:46.384
00:45:56.045 : en:00:45:56.045
00:59:19.639 : en:00:59:19.639
01:01:56.922 : en:01:01:56.922
01:09:24.452 : en:01:09:24.452
01:18:41.508 : en:01:18:41.508
01:23:52.945 : en:01:23:52.945
01:37:55.995 : en:01:37:55.995
01:56:18.305 : en:01:56:18.305
01:59:38.755 : en:01:59:38.755


Свернуть
Скриншоты

Изображение
Изображение
Изображение
Изображение
Изображение
Изображение
Свернуть
_________________
Изображение
Изображение
Не в сети
Профиль  
 Добавлено: 2013-08-22 08:50 (спустя 1 день 22 часа)
Аватара пользователя
Стаж: 8 лет
Сообщений: 1390
Спасибок: 39
Лайков: 64
что то скрины не тянут на 1080р :du_ma_et:
Не в сети
Профиль  
 Добавлено: 2013-08-24 12:21 (спустя 2 дня 3 часа)
Стаж: 8 лет 11 месяцев
Сообщений: 2
Всё отлично, качество хорошее :dan_ser:
Не в сети
Профиль  
 Добавлено: 2013-09-01 11:10 (спустя 7 дней)
Аватара пользователя
Стаж: 7 лет 3 месяца
Возраст: 24
Сообщений: 861
Лайков: 17
Будет рип с вырезанными сценами?
Не в сети
Профиль  
 Добавлено: 2013-09-03 00:42 (спустя 1 день 13 часов)
Аватара пользователя
Стаж: 7 лет 2 месяца
Сообщений: 16
Спасибок: 24
Отлично всё!! спасибо
Не в сети
Профиль  
 Добавлено: 2013-09-04 18:35 (спустя 1 день 17 часов)
Аватара пользователя
Стаж: 8 лет
Возраст: 29
Сообщений: 60
не понравился.
Не в сети
Профиль  
Начать новую темуОтветить на тему  [ Сообщений: 6 ] 
Вы не можете начинать темы
Вы не можете отвечать на сообщения
Вы не можете редактировать свои сообщения
Вы не можете удалять свои сообщения