Правила форума

  • В этом разделе создание новых тем Запрещено.
  • Для создания новых тем пользуйтесь Корневым разделом DVD и HD фильмы.
Начать новую темуОтветить на тему  [ Сообщений: 4 ] 
Торрент файл
Размер: 26.68 GB • Зарегистрирован: 3 года 3 месяца • Статус: Проверено
Скачан: 159 раз • Желающих скачать: 0 • Поблагодарили: 54 раза
 Раздают: 0  |  0 KB/s  ]   Качают: 0  |  0 KB/s  ] 
 Полного источника не было 10 месяцев 
Сообщения
 Добавлено: 2013-08-20 15:07
Top-releaser
Аватара пользователя
Стаж: 8 лет 9 месяцев
Сообщений: 479
Спасибок: 20190
Лайков: 16
Изображение

Изображение

Iron Man 3


«Герой будет сражен»

Год выпуска: 2013
Страна: Изображение США, Изображение Китай; Fairview Entertainment, Marvel Studios Inc., Noble Media, Outlaw Sinema, Paramount Pictures
Жанр: Фантастика, боевик, приключения
Продолжительность: 02:10:33
Перевод: Профессиональный (дублированный) [Лицензия], Оригинал
Субтитры: Русские, украинские, английские

Режиссёр: Шейн Блэк / Shane Black

В ролях: Роберт Дауни-мл., Гвинет Пэлтроу, Дон Чидл, Гай Пирс, Бен Кингсли, Ребекка Холл, Джеймс Бэдж Дэйл, Уильям Сэдлер, Стефани Чостак, Эштон Хэмилтон, Ти Симпкинс, Стэн Ли, Джон Фавро и др.

Описание: Когда мир Старка рушится на его глазах по вине неизвестных противников, Тони жаждет найти виновных и свести с ними счеты. Оказавшись в безвыходной ситуации, Старк может рассчитывать только на себя и свою изобретательность, чтобы защитить тех, кто ему дорог. Это становится настоящим испытанием для героя, которому придется не только сражаться с коварным врагом, но и разобраться в себе, чтобы найти ответ на вопрос, который давно его тревожит: что важнее — человек или костюм?


Качество: Blu-Ray Remux 1080p R5
Формат: MKV

Видео: AVC at 26,4 Мбит/сек, 1920 x 1080 (1.778) at 23.976 fps
Аудио 1: AC-3 at 640 Кбит/сек, 6 канала(ов), 48,0 КГц [Дубляж]
Аудио 2: DTS-HD MA, 8 ch, 4845 Кбит/с [Оригинал]
Раздача: Изображение


Изображение
MediaInfo

Общее
Уникальный идентификатор : 226941002424528759049796844065168607219 (0xAABB3F49AB87D66EAC471E317C44C7F3)
Полное имя : C:\Users\Домашний\Desktop\Zheleznyj.chelovek-3.2013.BluRay-Remux.1080p.[nntt].mkv
Формат : Matroska
Размер файла : 26,7 Гбайт
Продолжительность : 2 ч. 10 м.
Общий поток : 29,3 Мбит/сек
Название фильма : --SCHUMAHER--
Дата кодирования : UTC 2010-02-22 21:41:31
Программа кодирования : mkvmerge v5.9.0 ('On The Loose') built on Dec 9 2012 15:37:01
Библиотека кодирования : libebml v1.3.0 + libmatroska v1.4.0

Видео
Идентификатор : 1
Формат : AVC
Формат/Информация : Advanced Video Codec
Профиль формата : High@L4.1
Параметр CABAC формата : Да
Параметр ReFrames формата : 4 кадры
Идентификатор кодека : V_MPEG4/ISO/AVC
Продолжительность : 2 ч. 10 м.
Вид битрейта : Переменный
Битрейт : 26,4 Мбит/сек
Максимальный битрейт : 30,0 Мбит/сек
Ширина : 1920 пикс.
Высота : 1080 пикс.
Соотношение сторон : 16:9
Частота кадров : 23,976 кадр/сек
Цветовое пространство : YUV
Подвыборка цветности : 4:2:0
Битовая глубина : 8 бит
Тип развёртки : Прогрессивная
Бит/(Пиксели*Кадры) : 0.532
Размер потока : 24,1 Гбайт (90%)
Язык : English

Аудио #1
Идентификатор : 2
Формат : AC-3
Формат/Информация : Audio Coding 3
Расширение режима : CM (complete main)
Идентификатор кодека : A_AC3
Продолжительность : 2 ч. 10 м.
Вид битрейта : Постоянный
Битрейт : 640 Кбит/сек
Канал(ы) : 6 канала(ов)
Расположение каналов : Front: L C R, Side: L R, LFE
Частота : 48,0 КГц
Битовая глубина : 16 бит
Метод сжатия : С потерями
Размер потока : 598 Мбайт (2%)
Язык : Russian

Аудио #2
Идентификатор : 3
Формат : DTS
Формат/Информация : Digital Theater Systems
Профиль формата : MA / Core
Идентификатор кодека : A_DTS
Продолжительность : 2 ч. 10 м.
Вид битрейта : Переменный
Битрейт : 1606 Кбит/сек / 1510 Кбит/сек
Канал(ы) : 8 канала(ов) / 6 канала(ов)
Расположение каналов : Front: L C R, Side: L R, Back: L R, LFE / Front: L C R, Side: L R, LFE
Частота : 48,0 КГц
Битовая глубина : 24 бит
Метод сжатия : Без потерь / Lossy
Язык : English

Текст #1
Идентификатор : 4
Формат : UTF-8
Идентификатор кодека : S_TEXT/UTF8
Идентификатор кодека/Информация : UTF-8 Plain Text
Заголовок : Forced
Язык : Russian

Текст #2
Идентификатор : 5
Формат : UTF-8
Идентификатор кодека : S_TEXT/UTF8
Идентификатор кодека/Информация : UTF-8 Plain Text
Язык : Russian

Текст #3
Идентификатор : 6
Формат : UTF-8
Идентификатор кодека : S_TEXT/UTF8
Идентификатор кодека/Информация : UTF-8 Plain Text
Язык : Ukrainian

Текст #4
Идентификатор : 7
Формат : UTF-8
Идентификатор кодека : S_TEXT/UTF8
Идентификатор кодека/Информация : UTF-8 Plain Text
Язык : English

Меню
00:00:00.000 : en:00:00:00.000
00:04:53.000 : en:00:04:53.000
00:07:56.000 : en:00:07:56.000
00:12:14.000 : en:00:12:14.000
00:19:06.000 : en:00:19:06.000
00:23:49.000 : en:00:23:49.000
00:29:49.000 : en:00:29:49.000
00:39:48.000 : en:00:39:48.000
00:45:58.000 : en:00:45:58.000
00:59:20.000 : en:00:59:20.000
01:01:58.000 : en:01:01:58.000
01:09:25.000 : en:01:09:25.000
01:18:43.000 : en:01:18:43.000
01:23:54.000 : en:01:23:54.000
01:37:57.000 : en:01:37:57.000
01:56:20.000 : en:01:56:20.000
01:59:40.000 : en:01:59:40.000


Свернуть
Скриншоты

Изображение
Изображение
Изображение
Изображение
Изображение
Изображение
Изображение
Свернуть
_________________
Изображение
Изображение
Не в сети
Профиль  
 Добавлено: 2013-08-20 16:29 (спустя 1 час 21 минута)
Аватара пользователя
Стаж: 3 года 7 месяцев
Возраст: 36
Сообщений: 212
Спасибок: 1248
:bra_vo:
Не в сети
Профиль  
 Добавлено: 2013-08-20 17:05 (спустя 36 минут)
Аватара пользователя
Стаж: 8 лет 8 месяцев
Сообщений: 314
Спасибок: 362
Че не идет то?
Не в сети
Профиль  
 Добавлено: 2013-08-24 17:42 (спустя 4 дня)
Аватара пользователя
Стаж: 5 лет 3 месяца
Сообщений: 199
Спасибо
_________________
[url=http://avtomasterdzr.a5.ru/#/Главная]Автосервис это Я[/url]
Не в сети
Профиль  
Начать новую темуОтветить на тему  [ Сообщений: 4 ] 
Вы не можете начинать темы
Вы не можете отвечать на сообщения
Вы не можете редактировать свои сообщения
Вы не можете удалять свои сообщения