Правила форума

  • В этом разделе создание новых тем Запрещено.
  • Для создания новых тем пользуйтесь Корневым разделом DVD и HD фильмы.
Начать новую темуОтветить на тему  [ 1 сообщение ] 
Торрент файл
Размер: 10.48 GB • Зарегистрирован: 1 год 6 месяцев • Статус: Проверено
Скачан: 48 раз • Желающих скачать: 0 • Поблагодарили: 9 раз
 Раздают: 0  |  0 KB/s  ]   Качают: 0  |  0 KB/s  ] 
 Полного источника не было 3 дня 
Сообщения
 Добавлено: 2015-05-21 07:14
RG-ELEKTRO
Аватара пользователя
Стаж: 2 года 3 месяца
Сообщений: 7928
Спасибок: 53784
Лайков: 3304
Железный кулак 2 / The Man with the Iron Fists 2



Изображение


Год выпуска: 2015
Страна: США (Iron Fists)
Жанр: боевик
Продолжительность: 01:30:25
Перевод: Профессиональный (дубляж)
[лицензия]

Режиссёр: Роэль Рейн
В ролях: RZA, Кэри-Хироюки Тагава, Сахайак Бунсанакит, Пим Бабиер, Оушен Хоу, Грэйс Хуанг, Хой Линь, Шири Стивен Лавенштайн, Ковит Ваттанакуль, Дастин Нгуен
Описание: Шахтер Ли Кунг и его жена А Ни обнаружили раненного незнакомца Фаддеуса около деревни и дали ему убежище. После лечения он ввязался в конфликт со зловещим мастером Хо, его мерзким кланом Битл и ужасным Лордом Пи.
Изображение Изображение Изображение
Качество: ВDRip 1080р
Формат: MKV
Видео кодек: MPEG-4 AVC
Аудио кодек: AC3
Видео: MPEG-4 AVC, 15,9 Мбит/сек, 1920x1080, 23,976 кадра/сек
Аудио #1: AC3, 384 kb/s (6 ch) [Профессиональный (дубляж)]

"MI"
Общее
Уникальный идентификатор : 205158768908539372701371484181625952741 (0x9A5824427BC6A5B48C2B3372D5D1D9E5)
Полное имя : D:\Новая папка (2)\The.Man.with.the.Iron.Fists.2.2015.1080p.mkv
Формат : Matroska
Версия формата : Version 4 / Version 2
Размер файла : 10,5 Гбайт
Продолжительность : 1 ч. 30 м.
Общий поток : 16,6 Мбит/сек
Название фильма : Release for Piratbit.net_R.G. HD-Films
Дата кодирования : UTC 2015-05-20 19:43:53
Программа кодирования : mkvmerge v6.7.0 ('Back to the Ground') 64bit built on Jan 8 2014 15:10:52
Библиотека кодирования : libebml v1.3.0 + libmatroska v1.4.1
Attachment : Yes

Видео
Идентификатор : 1
Формат : AVC
Формат/Информация : Advanced Video Codec
Профиль формата : High@L4.1
Параметр CABAC формата : Да
Параметр ReFrames формата : 4 кадра
Идентификатор кодека : V_MPEG4/ISO/AVC
Продолжительность : 1 ч. 30 м.
Битрейт : 15,9 Мбит/сек
Ширина : 1920 пикселей
Высота : 1080 пикселей
Соотношение сторон : 16:9
Режим частоты кадров : Постоянный
Частота кадров : 23,976 кадра/сек
Цветовое пространство : YUV
Субдискретизация насыщенности : 4:2:0
Битовая глубина : 8 бит
Тип развёртки : Прогрессивная
Бит/(Пиксели*Кадры) : 0.319
Размер потока : 10,0 Гбайт (96%)
Заголовок : Release for Piratbit.net_R.G. HD-Films
Библиотека кодирования : x264 core 142 r2431+42 c69a006 tMod [8-bit@all X86_64]
Настройки программы : cabac=1 / ref=4 / deblock=1:-3:-3 / analyse=0x3:0x133 / me=umh / subme=11 / psy=1 / fade_compensate=0.00 / psy_rd=1.05:0.00 / mixed_ref=1 / me_range=24 / chroma_me=1 / trellis=2 / 8x8dct=1 / cqm=0 / deadzone=21,11 / fast_pskip=0 / chroma_qp_offset=-2 / threads=24 / lookahead_threads=4 / sliced_threads=0 / nr=0 / decimate=0 / interlaced=0 / bluray_compat=0 / constrained_intra=0 / fgo=0 / bframes=8 / b_pyramid=2 / b_adapt=2 / b_bias=0 / direct=3 / weightb=1 / open_gop=0 / weightp=2 / keyint=250 / keyint_min=23 / scenecut=40 / intra_refresh=0 / rc=crf / mbtree=0 / crf=19.0000 / qcomp=0.75 / qpmin=0:0:0 / qpmax=69:69:69 / qpstep=4 / ip_ratio=1.30 / pb_ratio=1.20 / aq=1:0.85 / aq-sensitivity=10.00 / aq-factor=1.00:1.00:1.00 / aq2=0 / aq3=0
Язык : Russian
Default : Да
Forced : Нет

Аудио
Идентификатор : 2
Формат : AC-3
Формат/Информация : Audio Coding 3
Расширение режима : CM (complete main)
Параметр Endianness формата : Big
Идентификатор кодека : A_AC3
Продолжительность : 1 ч. 30 м.
Вид битрейта : Постоянный
Битрейт : 384 Кбит/сек
Каналы : 6 каналов
Расположение каналов : Front: L C R, Side: L R, LFE
Частота : 48,0 КГц
Битовая глубина : 16 бит
Метод сжатия : С потерями
Размер потока : 248 Мбайт (2%)
Заголовок : Дубляж - [Лицензия]
Язык : Russian
Default : Да
Forced : Да

Меню
00:00:00.000 : en:00:00:00.000
00:04:46.661 : en:00:04:46.661
00:09:44.375 : en:00:09:44.375
00:13:03.116 : en:00:13:03.116
00:15:54.745 : en:00:15:54.745
00:20:53.085 : en:00:20:53.085
00:26:05.689 : en:00:26:05.689
00:30:07.305 : en:00:30:07.305
00:33:04.441 : en:00:33:04.441
00:37:55.023 : en:00:37:55.023
00:42:22.707 : en:00:42:22.707
00:47:48.407 : en:00:47:48.407
00:53:28.539 : en:00:53:28.539
00:55:57.020 : en:00:55:57.020
01:02:02.260 : en:01:02:02.260
01:05:19.499 : en:01:05:19.499
01:10:52.707 : en:01:10:52.707
01:15:58.220 : en:01:15:58.220
01:22:05.045 : en:01:22:05.045
01:25:48.894 : en:01:25:48.894
Свернуть

Скриншоты
Изображение
Изображение
Изображение
Изображение
Изображение
Свернуть


Изображение Изображение
_________________
Не ищите меня в "ВКонтакте", в "Одноклассниках" меня нет - я на трекерах сижу!
Не в сети
Профиль  
Начать новую темуОтветить на тему  [ 1 сообщение ] 
Вы не можете начинать темы
Вы не можете отвечать на сообщения
Вы не можете редактировать свои сообщения
Вы не можете удалять свои сообщения