Правила форума

  • В этом разделе создание новых тем Запрещено.
  • Для создания новых тем пользуйтесь Корневым разделом DVD и HD фильмы.
Начать новую темуОтветить на тему  [ Сообщений: 9 ] 
Торрент файл
Размер: 10.33 GB • Зарегистрирован: 5 лет 3 месяца • Статус: Проверено
Скачан: 441 раз • Желающих скачать: 0 • Поблагодарили: 60 раз
 Раздают: 0  |  0 KB/s  ]   Качают: 0  |  0 KB/s  ] 
 Полного источника не было 8 месяцев 
Сообщения
 Добавлено: 2011-08-08 20:48
Модератор
Аватара пользователя
Стаж: 8 лет 1 месяц
Сообщений: 1991
Спасибок: 129864
Лайков: 20
Железный рыцарь / Ironclad


«И хлынет кровь»



Изображение
Год выпуска: 2011
Страна: Изображение США, Изображение Германия, Изображение Великобритания
Жанр: боевик, приключения
Продолжительность:
02:00:40

Перевод: Профессиональный (дубляж) [Лицензия]


Режиссер: Джонатан Инглиш
Сценарий: Джонатан Инглиш, Эрик Кастел, Стивен МакДул
Продюсер: Джонатан Инглиш, Рик Бенаттар, Эндрю Дж. Кертис, Гленн Кендрик Экерманн, Джон Эвангелидес
Оператор: Дэвид Эггби
Композитор: Лорни Бэлфи

В ролях:
Джеймс Пьюрфой (Marshall), Пол Джаматти (King John), Брайан Кокс (Albany), Кейт Мара (Lady Isabel), Джейсон Флеминг (Beckett), Чарльз Дэнс (Archbishop Langton), Дерек Джекоби (Cornhill), Маккензи Крук (Marks), Владимир Кулич (Tiberius), Бри Конден (Agnes), Джэми Формен (Coteral), Анайрин Барнард (Guy)
Дублёры: Василий Дахненко (Marshall) (Marshall), Сергей Бурунов (King John) (King John), Алексей Колган (Albany) (Albany), Наталья Грачева (Lady Isabel) (Lady Isabel), Радик Мухаметзянов (Beckett) (Beckett), Владимир Антоник (Archbishop Langton) (Archbishop Langton), Олег Форостенко (Cornhill) (Cornhill), Денис Беспалый (Tiberius) (Tiberius), Борис Быстров (Coteral) (Coteral), Прохор Чеховской (Guy) (Guy), Илья Бледный, Диомид Виноградов

Описание: В 13-ом веке группа рыцарей Тамплиеров защищает Рочестерский замок от тирании короля Ионна.


Изображение: 6.732 (1 635 votes)
Изображение: 6.20 (4 209 votes)

MPAA: Изображение - Лицам до 17 лет обязательно присутствие взрослого


Бюджет: $25 000 000
Сборы в России: $768 715
Мировая премьера: 4 марта 2011
Изображение Релиз на DVD: 16 августа 2011, «West Video»
Изображение Релиз на Blu-ray: 16 августа 2011, «West Video»

Релиз группы: Изображение


Качество: BDRip 1080p [CHD]


Формат: MKV
Видео: 11.2 mb/s, 1920x1078
Аудио: Russian: AC3, 384 kb/s (6 ch) / English: AC3, 640 kb/s (6 ch)
Субтитры: English


BDInfo
General
Complete name : Ironclad.2011.D.BDRip.1080p.mkv
Format : Matroska
File size : 10.3 GiB
Duration : 2h 0mn
Overall bit rate : 12.2 Mbps
Encoded date : UTC 2011-08-08 15:37:14
Writing application : mkvmerge v3.4.0 ('Rapunzel') сборка от May 15 2010 09:38:20
Writing library : libebml v0.8.0 + libmatroska v0.9.0

Video
ID : 1
Format : AVC
Format/Info : Advanced Video Codec
Format profile : High@L4.1
Format settings, CABAC : Yes
Format settings, ReFrames : 4 frames
Codec ID : V_MPEG4/ISO/AVC
Duration : 2h 0mn
Bit rate : 11.2 Mbps
Width : 1 920 pixels
Height : 1 078 pixels
Display aspect ratio : 16:9
Frame rate : 23.976 fps
Color space : YUV
Chroma subsampling : 4:2:0
Bit depth : 8 bits
Scan type : Progressive
Bits/(Pixel*Frame) : 0.226
Stream size : 9.26 GiB (90%)
Title : Ironclad.2011.BluRay.1080p.AC3.x264-CHD
Writing library : x264 core 114 r1924 08d04a4
Encoding settings : cabac=1 / ref=4 / deblock=1:-3:-3 / analyse=0x3:0x113 / me=umh / subme=10 / psy=1 / psy_rd=1.05:0.10 / mixed_ref=1 / me_range=32 / chroma_me=1 / trellis=2 / 8x8dct=1 / cqm=2 / deadzone=21,11 / fast_pskip=0 / chroma_qp_offset=-2 / threads=12 / sliced_threads=0 / nr=0 / decimate=1 / interlaced=0 / constrained_intra=0 / bframes=6 / b_pyramid=2 / b_adapt=2 / b_bias=0 / direct=3 / weightb=1 / open_gop=0 / weightp=2 / keyint=250 / keyint_min=23 / scenecut=40 / intra_refresh=0 / rc_lookahead=50 / rc=2pass / mbtree=1 / bitrate=11211 / ratetol=1.0 / qcomp=0.70 / qpmin=1 / qpmax=63 / qpstep=4 / cplxblur=20.0 / qblur=0.5 / vbv_maxrate=40000 / vbv_bufsize=40000 / nal_hrd=none / ip_ratio=1.40 / aq=2:0.80
Language : English

Audio #1
ID : 2
Format : AC-3
Format/Info : Audio Coding 3
Mode extension : CM (complete main)
Codec ID : A_AC3
Duration : 2h 0mn
Bit rate mode : Constant
Bit rate : 384 Kbps
Channel(s) : 6 channels
Channel positions : Front: L C R, Side: L R, LFE
Sampling rate : 48.0 KHz
Bit depth : 16 bits
Stream size : 332 MiB (3%)
Title : DUB
Language : Russian

Audio #2
ID : 3
Format : AC-3
Format/Info : Audio Coding 3
Mode extension : CM (complete main)
Codec ID : A_AC3
Duration : 2h 0mn
Bit rate mode : Constant
Bit rate : 640 Kbps
Channel(s) : 6 channels
Channel positions : Front: L C R, Side: L R, LFE
Sampling rate : 48.0 KHz
Bit depth : 16 bits
Stream size : 553 MiB (5%)
Title : Original
Language : English

Text
ID : 4
Format : UTF-8
Codec ID : S_TEXT/UTF8
Codec ID/Info : UTF-8 Plain Text
Title : English
Language : English
Свернуть


Изображение


Знаете ли Вы, что...
  • Замок Рочестер расположен в одноимённом городе в графстве Кент. Это один из первых каменных замков в Англии и самый высокий из них. Рочестер прикрывает путь к Лондону с юга и, наряду с Виндзорoм и Беркампстэдом, является одним из укреплённых узлов на дальних подступах к Лондону.
  • На ранней стадии разработки проекта за ним была закреплена Меган Фокс. Позднее её заменила Кейт Мара.
  • Одну из ролей в фильме должен был сыграть 86-летний на тот момент патриарх британского кино Ричард Эттенборо, который вынужден был отказаться от этого по состоянию здоровья.
  • Из-за отсутствия необходимой финансовой поддержки в 2009 году бюджет фильма был существенно урезан. Это привело к практически полной замене всех уже подписавшихся на участие в проекте актёров второго плана.
  • Для съёмок фильма на территории студии Dragon International Film в Уэльсе была создана максимально приближённая к реальности копия замка Рочестер.
  • «Железный рыцарь» стал самым крупным и масштабным независимым проектом, когда-либо снимавшимся в Уэльсе.
Свернуть
Скриншоты

Изображение
Изображение
Изображение
Изображение
Свернуть

_________________
Себе ты можешь не качать, но раздавать другим обязан!
Не в сети
Профиль  
 Добавлено: 2011-08-09 09:06 (спустя 12 часов)
Стаж: 5 лет 10 месяцев
Сообщений: 54
Лайков: 2
а объясните мне зачем нужны английские субтитры на пол экрана ???
мне так смотреть не нравится :((
Не в сети
Профиль  
 Добавлено: 2011-08-09 12:38 (спустя 3 часа)
Модератор
Аватара пользователя
Стаж: 9 лет
Сообщений: 3080
Спасибок: 4102

Killer171:

а объясните мне зачем нужны английские субтитры на пол экрана ???
мне так смотреть не нравится :((
Можно отключить
_________________
Изображение
Наша жизнь - сумасшедшее шоу, наша гибель - финальный бугурт...
Чтобы тебя заметили Боги, надо быть впереди!

Мои раздачи на "NNTT.ORG" | Правила раздела "Кино" | Ветеринарный кабинет "Рыжий Кот"
Не в сети
Профиль  
 Добавлено: 2011-08-09 16:48 (спустя 4 часа)
Стаж: 5 лет 10 месяцев
Сообщений: 54
Лайков: 2
на компе можно, а вот чё то на телевизоре не знаю как отключить, при просмотре с внешнего HDD
Не в сети
Профиль  
 Добавлено: 2011-08-09 17:00 (спустя 12 минут)
Стаж: 7 лет 7 месяцев
Сообщений: 44
Парни подскажите кто нибудь?С внешнего HDD я смогу посмотреть фильм блю-рей или этот?У меня Блю-рей проигрователь BBK-BD3050?А то не знаю брать или нет HDD?
Не в сети
Профиль  
 Добавлено: 2011-08-09 17:51 (спустя 50 минут)
Аватара пользователя
Стаж: 8 лет
Возраст: 41
Сообщений: 32
Спасибок: 116
Лайков: 1

leo6429:

Парни подскажите кто нибудь?С внешнего HDD я смогу посмотреть фильм блю-рей или этот?У меня Блю-рей проигрователь BBK-BD3050?А то не знаю брать или нет HDD?
Судя по характеристикам данного аппарата можно подключать и смотреть.
Не в сети
Профиль  
 Добавлено: 2011-08-11 07:02 (спустя 1 день 13 часов)
Стаж: 7 лет 7 месяцев
Сообщений: 44
Спасибо!!!!!
Не в сети
Профиль  
 Добавлено: 2011-08-12 16:26 (спустя 1 день 9 часов)
Стаж: 7 лет 5 месяцев
Сообщений: 13
фильм то как ?
Не в сети
Профиль  
 Добавлено: 2011-08-15 17:22 (спустя 3 дня)
Кинокомментатор
Аватара пользователя
Стаж: 9 лет 1 месяц
Сообщений: 1332
Лайков: 54
фильм нормалёк:) смотреть можно:) в принципе всё по делу!) интересно!) но чего то не хватает) какой то динамики, лоска, цвета... хз чего) в общем фильму реально 6-7 но посмотреть стоит!) жестокости много и всяких костей мяса буэ)
_________________
Я ВКонтакте
Не в сети
Профиль  
Начать новую темуОтветить на тему  [ Сообщений: 9 ] 
Вы не можете начинать темы
Вы не можете отвечать на сообщения
Вы не можете редактировать свои сообщения
Вы не можете удалять свои сообщения