Правила форума

  • В этом разделе создание новых тем Запрещено.
  • Для создания новых тем пользуйтесь Корневым разделом DVD и HD фильмы.
Начать новую темуОтветить на тему  [ Сообщений: 5 ] 
Торрент файл
Размер: 5.34 GB • Зарегистрирован: 4 года 4 месяца • Статус: Проверено
Скачан: 152 раза • Желающих скачать: 0 • Поблагодарили: 29 раз
 Раздают: 0  |  0 KB/s  ]   Качают: 0  |  0 KB/s  ] 
 Полного источника не было 2 года 10 месяцев 
Сообщения
 Добавлено: 2012-07-22 21:48
Модератор
Аватара пользователя
Стаж: 6 лет 10 месяцев
Возраст: 33
Сообщений: 5908
Спасибок: 61259
Лайков: 3540
Изображение

Железное небо / Iron Sky


Год выпуска: 2012
Страна: Германия, Финляндия, Австралия
Слоган: «Вторжение с тёмной стороны луны!»
Жанр: фантастика, боевик, комедия
Продолжительность: 01:32:26
Перевод: Профессиональный (двухголосый) [Кубик в кубе]
Режиссер: Тимо Вуоренсола
Сценарий: Ярмо Пускала, Майкл Калеснико, Йоханна Синисало
Продюсер: Самули Торссонен, Оливер Дамиан, Теро Каукомаа, Джон Букман, Майкл Штрикер
Оператор: Мика Орасмаа
Композитор: Лайбах
В ролях: Юлия Дитце, Удо Кир, Пета Сержант, Ким Джексон, Гёц Отто, Стефани Пол, Кристофер Кирби, Моника Госсманн, Джим Нобелок, Юки Ивамото, Тило Прюкнер, Теро Каукомаа
Бюджет: €7 500 000
Сборы в России: $295 496
Сборы в мире: $6 758 728
Описание: 70 лет назад недобитые нацисты улетели на Луну. Теперь, когда их гигантский флот возмездия почти достроен, они решили устроить Земле новый блицкриг. Тем временем президент США готова на всё, чтобы пойти на второй срок - даже развязать в космосе войну за природные ресурсы; а тщеславный офицер Четвертого Рейха Клаус задумал предать фюрера и получить власть над Землёй в свои руки. Боевые цеппелины уже вышли на орбиту, земные города под прицелом. Похоже, мира хотят только двое: наивная учительница с Луны Ренате и бывший астронавт Джеймс Вашингтон.
Изображение
MPAA: Изображение
Мировая премьера: 11 февраля 2012
Релиз на DVD: 14 августа 2012, «Lizard Cinema Trade»
Раздача группы: Изображение
Качество: BDRip, 720p
Формат: Matroska
Видео: AVC; 1280x544 (2.35:1); 5086 Kbps; 24 fps; 0,304 bit/pixel
Аудио №1: Russian; DTS; 1509 Kbps; CBR; 6 ch; 24 bit
Аудио №2: English; DTS; 1509 Kbps; CBR; 6 ch; 24 bit

Субтитры №1: Romanian
Субтитры №2: English

"Знаете ли Вы, что..."
  • Сторонники фильма в интернете внесли в бюджет $1 500 000 на правах инвесторов.
Свернуть
MediaInfo
General
Complete name : D:1Jeleznoe.nebo.2012.P.BDRip.720p.mkv
Format : Matroska
File size : 5.34 GiB
Duration : 1h 32mn
Overall bit rate : 8 271 Kbps
Encoded date : UTC 2012-06-22 02:43:01
Writing application : mkvmerge v3.4.0 ('Rapunzel') сборка от May 15 2010 09:38:20
Writing library : libebml v0.8.0 + libmatroska v0.9.0

Video
ID : 1
Format : AVC
Format/Info : Advanced Video Codec
Format profile : High@L4.1
Format settings, CABAC : Yes
Format settings, ReFrames : 12 frames
Muxing mode : Container profile=Unknown@4.1
Codec ID : V_MPEG4/ISO/AVC
Duration : 1h 32mn
Bit rate : 5 249 Kbps
Width : 1 280 pixels
Height : 544 pixels
Display aspect ratio : 2.35:1
Frame rate : 24.000 fps
Color space : YUV
Chroma subsampling : 4:2:0
Bit depth : 8 bits
Scan type : Progressive
Bits/(Pixel*Frame) : 0.314
Stream size : 3.28 GiB (62%)
Writing library : x264 core 120 r2164+656 2ff844c
Encoding settings : cabac=1 / ref=12 / deblock=1:-3:-3 / analyse=0x3:0x113 / me=umh / subme=10 / psy=1 / fade_compensate=0.00 / psy_rd=1.05:0.10 / mixed_ref=1 / me_range=32 / chroma_me=1 / trellis=2 / 8x8dct=1 / cqm=0 / deadzone=21,11 / fast_pskip=0 / chroma_qp_offset=-2 / threads=12 / sliced_threads=0 / nr=0 / decimate=1 / interlaced=0 / bluray_compat=0 / constrained_intra=0 / fgo=0 / bframes=6 / b_pyramid=2 / b_adapt=2 / b_bias=0 / direct=3 / weightb=1 / open_gop=0 / weightp=2 / keyint=250 / keyint_min=24 / scenecut=40 / intra_refresh=0 / rc_lookahead=40 / rc=2pass / mbtree=0 / bitrate=5249 / ratetol=1.0 / qcomp=0.70 / qpmin=0 / qpmax=69 / qpstep=4 / cplxblur=20.0 / qblur=0.5 / vbv_maxrate=20000 / vbv_bufsize=30000 / nal_hrd=none / ip_ratio=1.40 / pb_ratio=1.30 / aq=2:1.00
Language : English
Color primaries : BT.709-5, BT.1361, IEC 61966-2-4, SMPTE RP177
Transfer characteristics : BT.709-5, BT.1361
Matrix coefficients : BT.709-5, BT.1361, IEC 61966-2-4 709, SMPTE RP177

Audio #1
ID : 2
Format : DTS
Format/Info : Digital Theater Systems
Codec ID : A_DTS
Duration : 1h 32mn
Bit rate mode : Constant
Bit rate : 1 510 Kbps
Channel(s) : 6 channels
Channel positions : Front: L C R, Side: L R, LFE
Sampling rate : 48.0 KHz
Bit depth : 24 bits
Stream size : 998 MiB (18%)
Language : Russian

Audio #2
ID : 3
Format : DTS
Format/Info : Digital Theater Systems
Codec ID : A_DTS
Duration : 1h 32mn
Bit rate mode : Constant
Bit rate : 1 510 Kbps
Channel(s) : 6 channels
Channel positions : Front: L C R, Side: L R, LFE
Sampling rate : 48.0 KHz
Bit depth : 24 bits
Stream size : 998 MiB (18%)
Language : English

Text #1
ID : 4
Format : UTF-8
Codec ID : S_TEXT/UTF8
Codec ID/Info : UTF-8 Plain Text
Language : Romanian

Text #2
ID : 5
Format : UTF-8
Codec ID : S_TEXT/UTF8
Codec ID/Info : UTF-8 Plain Text
Language : English

Menu
00:00:00.000 : en:00:00:00.000
00:11:29.333 : en:00:11:29.333
00:22:55.917 : en:00:22:55.917
00:31:25.000 : en:00:31:25.000
00:44:16.292 : en:00:44:16.292
00:53:26.500 : en:00:53:26.500
01:05:19.083 : en:01:05:19.083
01:13:26.625 : en:01:13:26.625
01:17:43.958 : en:01:17:43.958
01:24:35.333 : en:01:24:35.333

Свернуть

Скриншоты

Изображение
Изображение
Изображение
Изображение
Изображение
Изображение
Изображение
Свернуть
_________________
ИзображениеИзображение Изображение
Изображение
 tany1984 и di-ys1 нравится это.
Не в сети
Профиль  
 Добавлено: 2012-07-22 22:41 (спустя 52 минуты)
Аватара пользователя
Стаж: 5 лет 7 месяцев
Сообщений: 21
спасибо, ждал :co_ol:
Не в сети
Профиль  
 Добавлено: 2012-07-23 14:48 (спустя 16 часов)
Top-releaser
Аватара пользователя
Стаж: 6 лет 7 месяцев
Сообщений: 2078
Спасибок: 3230
Лайков: 9
Как фильм?
Не в сети
Профиль  
 Добавлено: 2012-07-24 17:00 (спустя 1 день 2 часа)
Аватара пользователя
Стаж: 7 лет 5 месяцев
Сообщений: 136
Лайков: 2
а перевод нормальный будет??? :-[
Не в сети
Профиль  
 Добавлено: 2013-09-15 23:57 (спустя 1 год 1 месяц)
Стаж: 7 лет 11 месяцев
Возраст: 25
Сообщений: 40
Интересно, что рейтинг и мировые сборы не совпадают с данными других релизов этого фильма оО
Не в сети
Профиль  
Начать новую темуОтветить на тему  [ Сообщений: 5 ] 
Вы не можете начинать темы
Вы не можете отвечать на сообщения
Вы не можете редактировать свои сообщения
Вы не можете удалять свои сообщения