Правила форума

  • В этом разделе создание новых тем Запрещено.
  • Для создания новых тем пользуйтесь Корневым разделом DVD и HD фильмы.
Начать новую темуОтветить на тему  [ Сообщений: 4 ] 
Торрент файл
Размер: 9.03 GB • Зарегистрирован: 4 года 3 месяца • Статус: Проверено
Скачан: 253 раза • Желающих скачать: 0 • Поблагодарили: 39 раз
 Раздают: 0  |  0 KB/s  ]   Качают: 0  |  0 KB/s  ] 
 Полного источника не было 6 дней 
Сообщения
 Добавлено: 2012-08-16 11:27
Модератор
Аватара пользователя
Стаж: 6 лет 10 месяцев
Возраст: 33
Сообщений: 5908
Спасибок: 61265
Лайков: 3540
Изображение

Железное небо / Iron Sky


Год выпуска: 2012
Страна: Финляндия, Германия, Австралия
Слоган: «Вторжение с тёмной стороны Луны!»
Жанр: фантастика, боевик, комедия
Продолжительность: 01:32:46
Перевод: Профессиональный (полное дублирование)
Режиссер: Юлия Дитце, Пета Сержант, Удо Кир
Сценарий: Мика Орасмаа, Лайбах, Ульрика Фон Вегезак, Юсси Лехтиниеми, Астрид Пёчке
Продюсер: Юлия Бирюкова, Леонид Векшин, Денис Беспалый, Александр Груздев, Даниил Эльдаров
Оператор: Лайбах, Ульрика Фон Вегезак, Юсси Лехтиниеми, Астрид Пёчке, Джейк Колье
Композитор: Ульрика Фон Вегезак, Юсси Лехтиниеми, Астрид Пёчке, Джейк Колье, Сабина Шааф
В ролях: Самули Торссонен, Оливер Дамиан, Теро Каукомаа, Джон Букман, Майкл Штрикер, Майкл Кауэн, Юки Ивамото, Сан Фу Малта, Шон О’Келли, Кэти Оверетт, Марк Оверетт, Юлия Бирюкова
Бюджет: € 7 500 000
Сборы в США: $23 943
Сборы в России: $444 792
Сборы в мире: $8 036 892
Описание: 70 лет назад недобитые нацисты улетели на Луну. Теперь, когда их гигантский флот возмездия почти достроен, они решили устроить Земле новый блицкриг. Тем временем президент США готова на всё, чтобы пойти на второй срок - даже развязать в космосе войну за природные ресурсы; а тщеславный офицер Четвертого Рейха Клаус задумал предать фюрера и получить власть над Землёй в свои руки. Боевые цеппелины уже вышли на орбиту, земные города под прицелом. Похоже, мира хотят только двое: наивная учительница с Луны Ренате и бывший астронавт Джеймс Вашингтон.
Изображение
MPAA: Изображение
Мировая премьера: 11 февраля 2012
Релиз на DVD: 14 августа 2012, «Lizard Cinema Trade»
Релиз группы: Изображение
Раздача группы: Изображение
Качество: BDRip, 1080p
Формат: Matroska
Видео: AVC; 1920x816 (2.35:1); 11691 Kbps; 24 fps; 0,311 bit/pixel
Аудио №1: Russian; AC3; 448 Kbps; CBR; 6 ch
Аудио №2: DTS; 1509 Kbps; CBR; 6 ch; 24 bit
Оригинал
"Знаете ли Вы, что..."
  • Сторонники фильма в интернете внесли в бюджет $1 500 000 на правах инвесторов.
Свернуть
MediaInfo
General
Unique ID : 183509614029802388514980458515697759775 (0x8A0EAA83D84D9F02A8E55CEEF473F61F)
Complete name : D:\gang\Jeleznoe.nebo.2012.D.BDRip.1080p_ELEKTRI4KA_[uniongang.tv].mkv
Format : Matroska
Format version : Version 2
File size : 9.03 GiB
Duration : 1h 32mn
Overall bit rate : 13.9 Mbps
Encoded date : UTC 2012-08-16 05:41:12
Writing application : mkvmerge v5.5.0 ('Healer') built on Apr 6 2012 21:43:24
Writing library : libebml v1.2.3 + libmatroska v1.3.0

Video
ID : 1
Format : AVC
Format/Info : Advanced Video Codec
Format profile : High@L4.1
Format settings, CABAC : Yes
Format settings, ReFrames : 5 frames
Codec ID : V_MPEG4/ISO/AVC
Duration : 1h 32mn
Bit rate : 12.0 Mbps
Width : 1 920 pixels
Height : 816 pixels
Display aspect ratio : 2.35:1
Frame rate : 24.000 fps
Color space : YUV
Chroma subsampling : 4:2:0
Bit depth : 8 bits
Scan type : Progressive
Bits/(Pixel*Frame) : 0.319
Stream size : 7.58 GiB (84%)
Writing library : x264 core 125 r2200 999b753
Encoding settings : cabac=1 / ref=5 / deblock=1:-3:-3 / analyse=0x3:0x113 / me=umh / subme=11 / psy=1 / psy_rd=1.20:0.00 / mixed_ref=1 / me_range=32 / chroma_me=1 / trellis=2 / 8x8dct=1 / cqm=0 / deadzone=21,11 / fast_pskip=0 / chroma_qp_offset=-2 / threads=18 / lookahead_threads=3 / sliced_threads=0 / nr=0 / decimate=0 / interlaced=0 / bluray_compat=0 / constrained_intra=0 / bframes=8 / b_pyramid=2 / b_adapt=2 / b_bias=0 / direct=3 / weightb=1 / open_gop=0 / weightp=2 / keyint=240 / keyint_min=24 / scenecut=40 / intra_refresh=0 / rc=2pass / mbtree=0 / bitrate=12000 / ratetol=1.0 / qcomp=0.75 / qpmin=0 / qpmax=69 / qpstep=4 / cplxblur=20.0 / qblur=0.5 / ip_ratio=1.40 / pb_ratio=1.30 / aq=1:0.80
Language : English
Default : Yes
Forced : No

Audio #1
ID : 2
Format : AC-3
Format/Info : Audio Coding 3
Mode extension : CM (complete main)
Format settings, Endianness : Big
Codec ID : A_AC3
Duration : 1h 32mn
Bit rate mode : Constant
Bit rate : 448 Kbps
Channel(s) : 6 channels
Channel positions : Front: L C R, Side: L R, LFE
Sampling rate : 48.0 KHz
Bit depth : 16 bits
Compression mode : Lossy
Delay relative to video : 8s 0ms
Stream size : 297 MiB (3%)
Language : Russian
Default : Yes
Forced : No

Audio #2
ID : 3
Format : DTS
Format/Info : Digital Theater Systems
Codec ID : A_DTS
Duration : 1h 32mn
Bit rate mode : Constant
Bit rate : 1 510 Kbps
Channel(s) : 6 channels
Channel positions : Front: L C R, Side: L R, LFE
Sampling rate : 48.0 KHz
Bit depth : 24 bits
Compression mode : Lossy
Stream size : 1 002 MiB (11%)
Language : English
Default : No
Forced : Yes

Menu
00:00:00.000 : en:00:00:00.000
00:11:36.417 : en:00:11:36.417
00:23:03.000 : en:00:23:03.000
00:31:32.083 : en:00:31:32.083
00:44:23.375 : en:00:44:23.375
00:53:33.583 : en:00:53:33.583
01:05:26.167 : en:01:05:26.167
01:13:33.708 : en:01:13:33.708
01:17:51.042 : en:01:17:51.042
01:24:42.417 : en:01:24:42.417

Свернуть

Скриншоты

Изображение
Изображение
Изображение
Изображение
Свернуть
_________________
ИзображениеИзображение Изображение
Изображение
 tany1984 и di-ys1 нравится это.
Не в сети
Профиль  
 Добавлено: 2012-08-18 20:57 (спустя 2 дня 9 часов)
Стаж: 7 лет 2 месяца
Сообщений: 1
Спасибок: 3
тупее фильма я еще не видела :du_ma_et: а нет,видела-Три балбеса ;;-)))
Не в сети
Профиль  
 Добавлено: 2012-08-21 07:30 (спустя 2 дня 10 часов)
Пользователь забанен
Аватара пользователя
Стаж: 6 лет 10 месяцев
Возраст: 35
Сообщений: 161
Спасибок: 67
Лайков: 15
Ну иногда и тупость можно посмотреть хоть ради того что бы поржать :bra_vo:
_________________
Only Psyhedelic
Не в сети
Профиль  
 Добавлено: 2012-08-21 17:50 (спустя 10 часов)
Аватара пользователя
Стаж: 8 лет 6 месяцев
Сообщений: 32
На последнем скрине Борька Моисеев? ;;-)))
Не в сети
Профиль  
Начать новую темуОтветить на тему  [ Сообщений: 4 ] 
Вы не можете начинать темы
Вы не можете отвечать на сообщения
Вы не можете редактировать свои сообщения
Вы не можете удалять свои сообщения