Правила форума

  • В этом разделе создание новых тем Запрещено.
  • Для создания новых тем пользуйтесь Корневым разделом DVD и HD фильмы.
Начать новую темуОтветить на тему  [ Сообщений: 4 ] 
Торрент файл
Размер: 4.71 GB • Зарегистрирован: 4 года 4 месяца • Статус: Проверено
Скачан: 119 раз • Желающих скачать: 0 • Поблагодарили: 25 раз
 Раздают: 0  |  0 KB/s  ]   Качают: 0  |  0 KB/s  ] 
 Полного источника не было 1 месяц 6 дней 
Сообщения
 Добавлено: 2012-07-21 09:44
Top-releaser
Аватара пользователя
Стаж: 6 лет 7 месяцев
Сообщений: 2078
Спасибок: 3230
Лайков: 9
Жена путешественника во времени / The Time Traveler's Wife

Изображение


Год выпуска: 2009
Страна: США
Жанр: фантастика, мелодрама, драма
Продолжительность: 01:47:25
Перевод: Профессиональный (полное дублирование)

Режиссёр: Роберт Швентке
В ролях: Мишель Нолден, Алекс Феррис, Арлисс Ховард, Эрик Бана, Барт Бедфорд, Эстер Джан, Мэтт Бирман, Рэйчел МакАдамс
Описание: Они познакомились, когда ей было шесть, а ему — тридцать шесть. Они поженились, когда ей было двадцать три, а ему тридцать один. Потому что Генри страдает редким генетическим заболеванием — синдромом перемещения во времени; его исчезновения из жизни Клэр непредсказуемы, появления — комичны, травматичны и трагичны одновременно.

Раздача группы: Изображение

Качество: BDRip, 720p
Формат: MKV
Видео кодек: H.264
Аудио кодек: AC3, DTS
Видео: 1280x534, 4317 kbps, 23.976 fps
Аудио #1: Русский AC3 5.1, 48 KHz, 448 kbps
Аудио #2: Английский DTS 5.1, 48 KHz, 1536 kbps
Субтитры: Русские, русские (только надписи и пр.), английские

Знаете ли вы, что...
  • Съёмки фильма начались в сентябре 2007 году, при этом планировалось, что фильм выйдет осенью 2008 года. Однако выпуск фильма был отложен без каких-либо официальных объяснений студии.
  • Права на экранизацию были куплены Бредом Питтом и Дженнифер Энистон еще до публикации книги.
  • На ранних этапах производства фильма на роль Генри прочили Эдриана Броуди, а на роль Клэр - Еву Грин.
  • Постановку фильма предлагали Стивену Спилбергу, Гасу Ван Сенту и Дэвиду Финчеру.
Свернуть
MediaInfo
Общее
Уникальный идентификатор : 241345393378189487820414154722732654637 (0xB5916E97DC1E35B0BE027AEA0637C02D)
Полное имя : Z:\WWW\TR-Downloads\Time Travelers Wife.720p[R.G.Daredevil].mkv
Формат : Matroska
Версия формата : Version 2
Размер файла : 4,71 Гбайт
Продолжительность : 1 ч. 47 м.
Общий поток : 6275 Кбит/сек
Дата кодирования : UTC 2010-02-03 23:58:00
Программа кодирования : mkvmerge v3.1.0 ('Happy up here') built on Jan 19 2010 12:09:24
Библиотека кодирования : libebml v0.7.9 + libmatroska v0.8.1

Видео
Идентификатор : 1
Формат : AVC
Формат/Информация : Advanced Video Codec
Профиль формата : High@L4.1
Параметр CABAC формата : Да
Параметр ReFrames формата : 12 кадров
Идентификатор кодека : V_MPEG4/ISO/AVC
Продолжительность : 1 ч. 47 м.
Битрейт : 4317 Кбит/сек
Ширина : 1280 пикселей
Высота : 534 пикселя
Соотношение сторон : 2,40:1
Частота кадров : 23,976 кадра/сек
Цветовое пространство : YUV
Субдискретизация насыщенности : 4:2:0
Битовая глубина : 8 бит
Тип развёртки : Прогрессивная
Бит/(Пиксели*Кадры) : 0.263
Размер потока : 3,15 Гбайт (67%)
Библиотека кодирования : x264 core 68 r1179M 96e2229
Настройки программы : cabac=1 / ref=12 / deblock=1:-3:-3 / analyse=0x3:0x133 / me=umh / subme=9 / psy_rd=1.1:0.0 / mixed_ref=1 / me_range=48 / chroma_me=1 / trellis=2 / 8x8dct=1 / cqm=0 / deadzone=21,11 / chroma_qp_offset=-2 / threads=12 / nr=0 / decimate=1 / mbaff=0 / bframes=5 / b_pyramid=1 / b_adapt=2 / b_bias=0 / direct=1 / wpredb=1 / keyint=250 / keyint_min=25 / scenecut=40 / rc=2pass / bitrate=4317 / ratetol=1.0 / qcomp=0.60 / qpmin=10 / qpmax=51 / qpstep=4 / cplxblur=20.0 / qblur=0.5 / vbv_maxrate=50000 / vbv_bufsize=50000 / ip_ratio=1.40 / pb_ratio=1.30 / aq=1:0.90
Язык : English
Default : Да
Forced : Нет

Аудио #1
Идентификатор : 2
Формат : AC-3
Формат/Информация : Audio Coding 3
Расширение режима : CM (complete main)
Параметр Endianness формата : Big
Идентификатор кодека : A_AC3
Продолжительность : 1 ч. 47 м.
Вид битрейта : Постоянный
Битрейт : 448 Кбит/сек
Каналы : 6 каналов
Расположение каналов : Front: L C R, Side: L R, LFE
Частота : 48,0 КГц
Битовая глубина : 16 бит
Метод сжатия : С потерями
Размер потока : 344 Мбайт (7%)
Заголовок : AC3 5.1 448 kbps
Язык : Russian
Default : Да
Forced : Нет

Аудио #2
Идентификатор : 3
Формат : DTS
Формат/Информация : Digital Theater Systems
Идентификатор кодека : A_DTS
Продолжительность : 1 ч. 47 м.
Вид битрейта : Постоянный
Битрейт : 1510 Кбит/сек
Каналы : 6 каналов
Расположение каналов : Front: L C R, Side: L R, LFE
Частота : 48,0 КГц
Битовая глубина : 24 бит
Метод сжатия : С потерями
Размер потока : 1,13 Гбайт (24%)
Заголовок : DTS 5.1 1536 kbps
Язык : English
Default : Нет
Forced : Нет

Текст #1
Идентификатор : 4
Формат : UTF-8
Идентификатор кодека : S_TEXT/UTF8
Идентификатор кодека/Информация : UTF-8 Plain Text
Язык : Russian
Default : Нет
Forced : Нет

Текст #2
Идентификатор : 5
Формат : UTF-8
Идентификатор кодека : S_TEXT/UTF8
Идентификатор кодека/Информация : UTF-8 Plain Text
Язык : English
Default : Нет
Forced : Нет

Текст #3
Идентификатор : 6
Формат : UTF-8
Идентификатор кодека : S_TEXT/UTF8
Идентификатор кодека/Информация : UTF-8 Plain Text
Заголовок : Tol'ko nadpisi
Язык : Russian
Default : Да
Forced : Нет
Свернуть
Скриншоты
Изображение

Изображение

Изображение

Изображение

Изображение
Свернуть
Не в сети
Профиль  
 Добавлено: 2012-07-21 19:23 (спустя 9 часов)
Стаж: 7 лет 8 месяцев
Сообщений: 5
Как фильм? Напишите кто смотрел
Не в сети
Профиль  
 Добавлено: 2012-07-21 23:39 (спустя 4 часа)
Top-seeder
Аватара пользователя
Стаж: 6 лет 1 месяц
Возраст: 28
Сообщений: 108
Спасибок: 14
Отличный фильм.
_________________
Fortes fortuna adjuvat...
Моя железка
Core i5 2500K@4500Мhz(1.375v)
Zalman 9900 NT
CORSAIR XMS3 4x2Gb@1600Mhz
ASROCK P67 PRO3
PALIT GeForce GTX 680 JETSTREAM
SSD OCZ Vertex 3 60Gb
HDD Samsung 1Tb
Блок питания OCZ StealthXStream 2 700Вт
Монитор LG Flatron E2441T-BN 24"
Свернуть
Не в сети
Профиль  
 Добавлено: 2013-09-13 08:20 (спустя 1 год 1 месяц)
Top-releaser
Аватара пользователя
Стаж: 7 лет 4 месяца
Возраст: 38
Сообщений: 5347
Спасибок: 10065
Лайков: 2936
Фильм удивительный, светлый, а последняя сцена.......уж на что человек не сентиментальный, но честно говоря, прослезился. Фильм однозначно возьму в коллекцию.
Не в сети
Профиль  
Начать новую темуОтветить на тему  [ Сообщений: 4 ] 
Вы не можете начинать темы
Вы не можете отвечать на сообщения
Вы не можете редактировать свои сообщения
Вы не можете удалять свои сообщения