Правила форума

  • В этом разделе создание новых тем Запрещено.
  • Для создания новых тем пользуйтесь Корневым разделом DVD и HD фильмы.
Начать новую темуОтветить на тему  [ 1 сообщение ] 
Торрент файл
Размер: 6.84 GB • Зарегистрирован: 5 лет 3 месяца • Статус: Проверено
Скачан: 31 раз • Желающих скачать: 0 • Поблагодарили: 7 раз
 Раздают: 0  |  0 KB/s  ]   Качают: 0  |  0 KB/s  ] 
 Полного источника не было 7 месяцев 
Сообщения
 Добавлено: 2011-08-07 17:04
Top-releaser
Аватара пользователя
Стаж: 6 лет 7 месяцев
Сообщений: 2078
Спасибок: 3229
Лайков: 9
Женщина-кошка / Catwoman

Изображение

Год выпуска: 2004
Страна: США, Автралия
Жанр: боевик, фэнтези
Продолжительность: 1:44:00
Перевод: Профессиональный (полное дублирование)
Режиссёр: Питоф
В ролях: Холли Берри, Шэрон Стоун, Бенджамин Брэтт, Ламбер Вильсон, Фрэнсис Конрой, Алекс Борштейн, Майкл Масси, Байрон Манн, Ким Смит, Кристофер Хейердал
Описание: Пейшинс Филипс работает дизайнером в крупной косметической компании, которая готовится выпустить на рынок новый продукт, замедляющий старение. Но у этой революционной новинки есть существенный недостаток, который компания тщательно скрывает и о котором случайно узнает Пэйшинс. Дальнейшие события меняют ее жизнь самым невероятным образом…

Раздача группы: Изображение

Качество: BDRip
Формат: MKV
Видео кодек: H.264
Аудио кодек: AC3 (Dolby Digital)
Видео: 1920x800, 8361 kbps, 23.976 fps
Аудио #1: AC3, 448 Kbps, 6 channels, 48.0 KHz
Аудио #2: AC3, 640 Kbps, 6 channels, 48.0 KHz (Eng)
Cубтитры: Русские, английские

Скриншоты
Изображение

Изображение

Изображение

Изображение
Свернуть

MediaInfo
General
Unique ID : 199558555193234945448365276672382407354 (0x96219467E8C943A397C0CA374BB712BA)
Complete name : I:\Женщина-кошка\Catwoman 1080.mkv
Format : Matroska
File size : 6.84 GiB
Duration : 1h 44mn
Overall bit rate : 9 395 Kbps
Encoded date : UTC 2009-08-25 00:06:50
Writing application : mkvmerge v2.0.2 ('You're My Flame') built on Feb 21 2007 23:40:55
Writing library : libebml v0.7.7 + libmatroska v0.8.1

Video
ID : 1
Format : AVC
Format/Info : Advanced Video Codec
Format profile : High@L4.1
Format settings, CABAC : Yes
Format settings, ReFrames : 5 frames
Codec ID : V_MPEG4/ISO/AVC
Duration : 1h 44mn
Bit rate : 8 361 Kbps
Width : 1 920 pixels
Height : 800 pixels
Display aspect ratio : 2.40:1
Frame rate : 23.976 fps
Color space : YUV
Chroma subsampling : 4:2:0
Bit depth : 8 bits
Scan type : Progressive
Bits/(Pixel*Frame) : 0.227
Stream size : 5.92 GiB (86%)
Writing library : x264 core 68 r1183M f21daff
Encoding settings : cabac=1 / ref=5 / deblock=1:0:0 / analyse=0x3:0x133 / me=umh / subme=7 / psy_rd=1.0:0.0 / mixed_ref=1 / me_range=16 / chroma_me=1 / trellis=1 / 8x8dct=1 / cqm=0 / deadzone=21,11 / chroma_qp_offset=-2 / threads=6 / nr=0 / decimate=1 / mbaff=0 / bframes=3 / b_pyramid=1 / b_adapt=1 / b_bias=0 / direct=1 / wpredb=1 / keyint=250 / keyint_min=25 / scenecut=40 / rc=2pass / bitrate=8361 / ratetol=1.0 / qcomp=0.60 / qpmin=10 / qpmax=51 / qpstep=4 / cplxblur=20.0 / qblur=0.5 / ip_ratio=1.40 / pb_ratio=1.30 / aq=1:1.00
Language : English

Audio #1
ID : 2
Format : AC-3
Format/Info : Audio Coding 3
Mode extension : CM (complete main)
Codec ID : A_AC3
Duration : 1h 44mn
Bit rate mode : Constant
Bit rate : 448 Kbps
Channel(s) : 6 channels
Channel positions : Front: L C R, Side: L R, LFE
Sampling rate : 48.0 KHz
Bit depth : 16 bits
Compression mode : Lossy
Stream size : 334 MiB (5%)
Title : AC3 5.1 448 kbps
Language : Russian

Audio #2
ID : 3
Format : AC-3
Format/Info : Audio Coding 3
Mode extension : CM (complete main)
Codec ID : A_AC3
Duration : 1h 44mn
Bit rate mode : Constant
Bit rate : 640 Kbps
Channel(s) : 6 channels
Channel positions : Front: L C R, Side: L R, LFE
Sampling rate : 48.0 KHz
Bit depth : 16 bits
Compression mode : Lossy
Stream size : 477 MiB (7%)
Title : AC3 5.1 640 kbps
Language : English

Text #1
ID : 4
Format : UTF-8
Codec ID : S_TEXT/UTF8
Codec ID/Info : UTF-8 Plain Text
Language : Russian

Text #2
ID : 5
Format : UTF-8
Codec ID : S_TEXT/UTF8
Codec ID/Info : UTF-8 Plain Text
Language : English

Свернуть
Не в сети
Профиль  
Начать новую темуОтветить на тему  [ 1 сообщение ] 
Вы не можете начинать темы
Вы не можете отвечать на сообщения
Вы не можете редактировать свои сообщения
Вы не можете удалять свои сообщения