Правила форума

  • В этом разделе создание новых тем Запрещено.
  • Для создания новых тем пользуйтесь Корневым разделом DVD и HD фильмы.
Начать новую темуОтветить на тему  [ 1 сообщение ] 
Торрент файл
Размер: 9.26 GB • Зарегистрирован: 1 год 6 месяцев • Статус: Проверено
Скачан: 48 раз • Желающих скачать: 0 • Поблагодарили: 13 раз
 Раздают: 0  |  0 KB/s  ]   Качают: 0  |  0 KB/s  ] 
 Полного источника не было 4 дня 
Сообщения
 Добавлено: 2015-06-05 13:17
RG-ELEKTRO
Аватара пользователя
Стаж: 2 года 3 месяца
Сообщений: 7928
Спасибок: 53776
Лайков: 3304
Женщина в черном 2: Ангел смерти / The Woman in Black 2: Angel of Death


«Она не простила. Она не забыла. Она никогда не уходила»

Изображение


Год выпуска: 2014
Страна: Великобритания, Канада
Жанр: ужасы, триллер, драма
Продолжительность: 01:38:32
Перевод: Профессиональный (дубляж) [Лицензия]

Режиссёр: Том Харпер
В ролях: Хелен МакКрори, Фиби Фокс, Джереми Ирвин, Нед Деннехи, Адриан Роулинз, Лиэнн Бест, Амелия Пиджеон
Описание: Во время Второй мировой войны группу школьников и их юную учительницу Еву эвакуируют из подвергшегося бомбардировкам Лондона в заброшенное поместье, расположенное в деревенской глуши. Вскоре в деревне начинают происходить странные события. Ева с помощью начальника местного гарнизона Гарри обнаруживает, что приезд детей пробудил темные силы, внушающие больший ужас, чем вражеские бомбардировки. Теперь Ева должна противостоять силам зла, спасти детей и пережить встречу с Женщиной в черном.
Изображение Изображение Изображение
Качество: BDRip 1080p
Формат: MKV
Видео кодек: MPEG-4 AVC
Аудио кодек: AC3 / DTS
Видео: MPEG-4 AVC, 11500 Кбит/с, 1920x800
Аудио #1: AC3, 6 ch, 448 Кбит/с [Профессиональный (дубляж)]
Аудио #2: Aнглийский (DTS, 6 ch, 1510 Кбит/с)

Скриншоты
Изображение
Изображение
Изображение
Свернуть

"MI"
Полное имя : G:Zhenshhina.v.chernom.2.Angel.smerti.2014.UNIONGANG.BDRip.(1080p).mkv
Формат : Matroska
Версия формата : Version 4 / Version 2
Размер файла : 9,26 Гбайт
Продолжительность : 1 ч. 38 м.
Общий поток : 13,4 Мбит/сек
Дата кодирования : UTC 2015-06-04 19:54:02
Программа кодирования : mkvmerge v7.7.0 ('Six Voices') 32bit built on Feb 28 2015 23:23:00
Библиотека кодирования : libebml v1.3.1 + libmatroska v1.4.2

Видео
Идентификатор : 1
Формат : AVC
Формат/Информация : Advanced Video Codec
Профиль формата : High@L4.1
Параметр CABAC формата : Да
Параметр ReFrames формата : 5 кадров
Идентификатор кодека : V_MPEG4/ISO/AVC
Продолжительность : 1 ч. 38 м.
Битрейт : 11,5 Мбит/сек
Ширина : 1920 пикселей
Высота : 800 пикселей
Соотношение сторон : 2,40:1
Режим частоты кадров : Постоянный
Частота кадров : 23,976 кадра/сек
Цветовое пространство : YUV
Субдискретизация насыщенности : 4:2:0
Битовая глубина : 8 бит
Тип развёртки : Прогрессивная
Бит/(Пиксели*Кадры) : 0.312
Размер потока : 7,72 Гбайт (83%)
Библиотека кодирования : x264 core 142 r2479 dd79a61
Настройки программы : cabac=1 / ref=5 / deblock=1:-3:-3 / analyse=0x3:0x133 / me=umh / subme=11 / psy=1 / psy_rd=1.05:0.10 / mixed_ref=1 / me_range=64 / chroma_me=1 / trellis=2 / 8x8dct=1 / cqm=0 / deadzone=21,11 / fast_pskip=0 / chroma_qp_offset=-3 / threads=12 / lookahead_threads=2 / sliced_threads=0 / nr=0 / decimate=1 / interlaced=0 / bluray_compat=0 / constrained_intra=0 / bframes=8 / b_pyramid=2 / b_adapt=2 / b_bias=0 / direct=3 / weightb=1 / open_gop=0 / weightp=2 / keyint=250 / keyint_min=23 / scenecut=40 / intra_refresh=0 / rc_lookahead=80 / rc=2pass / mbtree=0 / bitrate=11500 / ratetol=1.0 / qcomp=0.70 / qpmin=0 / qpmax=69 / qpstep=4 / cplxblur=20.0 / qblur=0.5 / vbv_maxrate=38000 / vbv_bufsize=30000 / nal_hrd=none / filler=0 / ip_ratio=1.40 / pb_ratio=1.30 / aq=1:0.75
Язык : English
Default : Да
Forced : Нет

Аудио #1
Идентификатор : 2
Формат : AC-3
Формат/Информация : Audio Coding 3
Расширение режима : CM (complete main)
Параметр Endianness формата : Big
Идентификатор кодека : A_AC3
Продолжительность : 1 ч. 38 м.
Вид битрейта : Постоянный
Битрейт : 448 Кбит/сек
Каналы : 6 каналов
Расположение каналов : Front: L C R, Side: L R, LFE
Частота : 48,0 КГц
Битовая глубина : 16 бит
Метод сжатия : С потерями
Размер потока : 316 Мбайт (3%)
Язык : Russian
Default : Да
Forced : Нет

Аудио #2
Идентификатор : 3
Формат : DTS
Формат/Информация : Digital Theater Systems
Режим : 16
Параметр Endianness формата : Big
Идентификатор кодека : A_DTS
Продолжительность : 1 ч. 38 м.
Вид битрейта : Постоянный
Битрейт : 1509 Кбит/сек
Каналы : 6 каналов
Расположение каналов : Front: L C R, Side: L R, LFE
Частота : 48,0 КГц
Битовая глубина : 24 бит
Метод сжатия : С потерями
Размер потока : 1,04 Гбайт (11%)
Заголовок : English
Язык : English
Default : Нет
Forced : Нет

Меню
00:00:00.000 : en:00:00:00.000
00:07:33.745 : en:00:07:33.745
00:11:13.798 : en:00:11:13.798
00:18:38.409 : en:00:18:38.409
00:20:51.167 : en:00:20:51.167
00:24:53.659 : en:00:24:53.659
00:30:43.008 : en:00:30:43.008
00:34:04.000 : en:00:34:04.000
00:35:44.893 : en:00:35:44.893
00:39:13.184 : en:00:39:13.184
00:41:52.677 : en:00:41:52.677
00:43:34.737 : en:00:43:34.737
00:47:58.626 : en:00:47:58.626
00:48:57.184 : en:00:48:57.184
00:53:13.315 : en:00:53:13.315
00:55:54.643 : en:00:55:54.643
01:01:20.510 : en:01:01:20.510
01:07:58.992 : en:01:07:58.992
01:11:51.641 : en:01:11:51.641
01:16:41.347 : en:01:16:41.347
01:19:57.167 : en:01:19:57.167
01:23:13.030 : en:01:23:13.030
01:30:24.919 : en:01:30:24.919
Свернуть

Изображение


Изображение Изображение
_________________
Не ищите меня в "ВКонтакте", в "Одноклассниках" меня нет - я на трекерах сижу!
Не в сети
Профиль  
Начать новую темуОтветить на тему  [ 1 сообщение ] 
Вы не можете начинать темы
Вы не можете отвечать на сообщения
Вы не можете редактировать свои сообщения
Вы не можете удалять свои сообщения