Правила форума

  • В этом разделе создание новых тем Запрещено.
  • Для создания новых тем пользуйтесь Корневым разделом DVD и HD фильмы.
Начать новую темуОтветить на тему  [ Сообщений: 7 ] 
Торрент файл
Размер: 10.33 GB • Зарегистрирован: 4 года 5 месяцев • Статус: Проверено
Скачан: 372 раза • Желающих скачать: 0 • Поблагодарили: 55 раз
 Раздают: 1  |  0 KB/s  ]   Качают: 0  |  0 KB/s  ] 
Сообщения
 Добавлено: 2012-06-28 01:30
Руководитель релиз-группы
Аватара пользователя
Стаж: 7 лет 5 месяцев
Возраст: 31
Сообщений: 3407
Спасибок: 46729
Лайков: 5
Изображение

Женщина в черном
The Woman in Black


Год выпуска: 2012
Страна: Швеция, Канада, Великобритания
Слоган: «Только не смотри на нее»
Жанр: ужасы, триллер, драма
Продолжительность: 01:35:19
Перевод: Профессиональный (полное дублирование) [лицензия]
Режиссер: Джеймс Уоткинс
Сценарий: Джейн Голдман, Сьюзен Хилл
Продюсер: Саймон Оукс, Брайан Оливер, Ричард Джексон
Оператор: Тим Морис-Джонс
Композитор: Марко Белтрами
В ролях: Дэниел Рэдклифф, Кирен Хайдз, Джанет МакТир, Дэвид Бурк, Шон Дули, Эмма Шори, Молли Хэрмон, Софи Стаки, Миша Хэндли, Джессика Рэйне
Бюджет: $17 000 000
Сборы в мире: $127 730 736
Описание: На дворе - конец девятнадцатого века, но, хотя люди пользуются автомобилями, железными дорогами и телеграфом, человек по-прежнему бессилен перед проявлениями сверхъестественного. Молодой лондонский юрист Артур Киппс вынужден оставить своего 4-летнего сына и отправиться в командировку в уединенную северную деревушку, чтобы составить реестр документов, оставшихся от скончавшегося хозяина поместья Ил Марш. Добравшись до места и пообщавшись с негостеприимными местными жителями, он начинает понимать, что над деревушкой нависла тень мрачной тайны. Когда же рядом со старым кладбищем ему на глаза попадается загадочная женщина, одетая в черное, это малозначительное происшествие знаменует начало череды леденящих кровь смертей в семьях обитателей деревни.
Изображение
MPAA: Изображение
Раздача группы: Изображение
Качество: BDRip, 1080p
Формат: Matroska
Видео: AVC; 1920x816 (2.35:1); 12188 Kbps; 23,976 fps; 0,324 bit/pixel
Аудио #1: DTS; 1509 Kbps; CBR; 6 ch; 24 bit Russian
Аудио #2: DTS; 1509 Kbps; CBR; 6 ch; 24 bit English
Субтитры: русские, английские
mediainfo
Формат : Matroska
Версия формата : Version 2
Размер файла : 10,3 Гбайт
Продолжительность : 1 ч. 35 м.
Общий поток : 15,5 Мбит/сек
Название фильма : IRONCLUB
Дата кодирования : UTC 2012-06-27 19:21:25
Программа кодирования : mkvmerge v4.6.0 ('Still Crazy After All These Years') сборка от Apr 1 2011 21:01:49
Библиотека кодирования : libebml v1.2.0 + libmatroska v1.1.0

Видео
Идентификатор : 1
Формат : AVC
Формат/Информация : Advanced Video Codec
Профиль формата : High@L4.1
Параметр CABAC формата : Да
Параметр ReFrames формата : 4 кадра
Идентификатор кодека : V_MPEG4/ISO/AVC
Продолжительность : 1 ч. 35 м.
Битрейт : 12,5 Мбит/сек
Ширина : 1920 пикселей
Высота : 816 пикселей
Соотношение сторон : 2,35:1
Частота кадров : 23,976 кадра/сек
Цветовое пространство : YUV
Субдискретизация насыщенности : 4:2:0
Битовая глубина : 8 бит
Тип развёртки : Прогрессивная
Бит/(Пиксели*Кадры) : 0.333
Размер потока : 8,12 Гбайт (79%)
Библиотека кодирования : x264 core 120 r2120 0c7dab9
Настройки программы : cabac=1 / ref=4 / deblock=1:-6:-3 / analyse=0x3:0x113 / me=umh / subme=11 / psy=1 / psy_rd=1.00:0.00 / mixed_ref=1 / me_range=16 / chroma_me=1 / trellis=2 / 8x8dct=1 / cqm=0 / deadzone=21,11 / fast_pskip=1 / chroma_qp_offset=-2 / threads=12 / sliced_threads=0 / nr=2 / decimate=1 / interlaced=0 / bluray_compat=0 / constrained_intra=0 / bframes=12 / b_pyramid=0 / b_adapt=1 / b_bias=0 / direct=1 / weightb=1 / open_gop=0 / weightp=2 / keyint=250 / keyint_min=23 / scenecut=40 / intra_refresh=0 / rc_lookahead=40 / rc=2pass / mbtree=1 / bitrate=12500 / ratetol=1.0 / qcomp=0.60 / qpmin=0 / qpmax=35 / qpstep=4 / cplxblur=20.0 / qblur=0.5 / ip_ratio=3.00 / aq=1:1.00
Язык : English

Аудио #1
Идентификатор : 2
Формат : DTS
Формат/Информация : Digital Theater Systems
Идентификатор кодека : A_DTS
Продолжительность : 1 ч. 35 м.
Вид битрейта : Постоянный
Битрейт : 1510 Кбит/сек
Каналы : 6 каналов
Расположение каналов : Front: L C R, Side: L R, LFE
Частота : 48,0 КГц
Битовая глубина : 24 бит
Метод сжатия : С потерями
Задержка видео : 22 мс.
Размер потока : 1,01 Гбайт (10%)
Заголовок : ENG
Язык : English

Аудио #2
Идентификатор : 6
Формат : DTS
Формат/Информация : Digital Theater Systems
Идентификатор кодека : A_DTS
Продолжительность : 1 ч. 35 м.
Вид битрейта : Постоянный
Битрейт : 1510 Кбит/сек
Каналы : 6 каналов
Расположение каналов : Front: L C R, Side: L R, LFE
Частота : 48,0 КГц
Битовая глубина : 24 бит
Метод сжатия : С потерями
Задержка видео : 21 мс.
Размер потока : 1,01 Гбайт (10%)
Заголовок : DTS 5.1 @ 1536 kbps - Dub, DVD R5
Язык : Russian

Текст #1
Идентификатор : 3
Формат : UTF-8
Идентификатор кодека : S_TEXT/UTF8
Идентификатор кодека/Информация : UTF-8 Plain Text
Заголовок : RUS.v1
Язык : Russian

Текст #2
Идентификатор : 4
Формат : UTF-8
Идентификатор кодека : S_TEXT/UTF8
Идентификатор кодека/Информация : UTF-8 Plain Text
Заголовок : RUS.v2
Язык : Russian

Текст #3
Идентификатор : 5
Формат : UTF-8
Идентификатор кодека : S_TEXT/UTF8
Идентификатор кодека/Информация : UTF-8 Plain Text
Заголовок : ENG
Язык : English
Свернуть
"Знаете ли Вы, что..."
  • Фильм основан на одноимённом романе британской писательницы Сюзан Хилл, впервые опубликованном в октябре 1983 года.
  • В 1987 году по книге Сюзан Хилл была поставлена пьеса, дебютировавшая в театре Стивена Джозефа в городе Сканторп. Два года спустя пьеса переехала в Вест-Энд, где и продолжает идти до настоящего времени.
  • Первоначально продюсеры фильма рассматривали возможность создания его в 3D, но в последующем от этой идеи было решено отказаться.
  • Мальчик, играющий сына героя Дэниэла Рэдклиффа в фильме, на самом деле является крёстным сыном молодого актера. Это предложение в процессе кастинга сделал сам Дэниэл Рэдклифф.
  • Музыкальные шкатулки и механические игрушки в сцене в детской были реальными антикварными предметами того периода, позаимствованными на время съёмок у коллекционера.
  • Машина персонажа Кирена Хайдза это Rolls-Royce Silver Ghost. Этот уникальный автомобиль считается самым дорогим в мире со страховой стоимостью 35 миллионов долларов в 2005 году. На момент съёмок стоимость произведённого в 1907 году автомобиля оценивалась в 57 миллионов долларов.
  • Эдриан Роулинз, актёр, сыгравший отца Гарри Поттера, был главным героем фильма «Женщина в черном» 1989-го года.
Свернуть
Скриншоты

Изображение

Изображение

Изображение
Свернуть
Не в сети
Профиль  
 Добавлено: 2012-06-29 21:49 (спустя 1 день 20 часов)
Аватара пользователя
Стаж: 7 лет 7 месяцев
Сообщений: 286
Лайков: 29
перевода нет, что делать?

Добавлено спустя 1 минута:
на компьютере все норм, на домашнем кинотеатре на флешке нет перевода
Не в сети
Профиль  
 Добавлено: 2012-06-30 06:58 (спустя 9 часов)
Руководитель релиз-группы
Аватара пользователя
Стаж: 7 лет 5 месяцев
Возраст: 31
Сообщений: 3407
Спасибок: 46729
Лайков: 5
cayp123
звуковую дорожку переключите, по дефолту английский выставлен
Не в сети
Профиль  
 Добавлено: 2012-07-01 16:46 (спустя 1 день 9 часов)
Аватара пользователя
Стаж: 7 лет 7 месяцев
Сообщений: 286
Лайков: 29
а можете подсказать как, не умею, вот только могу поменять на компьютере, нормально меняется, ставлю на домашний, перевода нет...
Не в сети
Профиль  
 Добавлено: 2012-07-03 20:05 (спустя 2 дня 3 часа)
Top-releaser
Аватара пользователя
Стаж: 8 лет 7 месяцев
Сообщений: 1286
Спасибок: 3420
Лайков: 7
Ух ты, Гарри Поттер вернулся :hi_hi_hi: Спасибо ткнул :co_ol: глянем :)
Не в сети
Профиль  
 Добавлено: 2012-07-05 17:21 (спустя 1 день 21 час)
Стаж: 5 лет 10 месяцев
Сообщений: 280
Лайков: 8
На медиа-плеере есть кнопка(на ДУ) перевода в другую звуковую дорожку.....фильм конечно "избитый",но посмотреть с хорошим звуком и в качестве стоит,на что я- "стойкий и старый оловянный солдатик",но тройку раз "ёкнул")))
Не в сети
Профиль  
 Добавлено: 2012-10-23 17:22 (спустя 3 месяца 18 дней)
Стаж: 4 года 1 месяц
Сообщений: 1
Посмотрим)
Не в сети
Профиль  
Начать новую темуОтветить на тему  [ Сообщений: 7 ] 
Вы не можете начинать темы
Вы не можете отвечать на сообщения
Вы не можете редактировать свои сообщения
Вы не можете удалять свои сообщения