Правила форума

  • В этом разделе создание новых тем Запрещено.
  • Для создания новых тем пользуйтесь Корневым разделом DVD и HD фильмы.
Начать новую темуОтветить на тему  [ Сообщений: 2 ] 
Торрент файл
Размер: 4.78 GB • Зарегистрирован: 4 года 5 месяцев • Статус: Проверено
Скачан: 97 раз • Желающих скачать: 0 • Поблагодарили: 20 раз
 Раздают: 0  |  0 KB/s  ]   Качают: 0  |  0 KB/s  ] 
 Полного источника не было 1 год 1 месяц 
Сообщения
 Добавлено: 2012-06-28 11:50
Руководитель релиз-группы
Аватара пользователя
Стаж: 7 лет 5 месяцев
Возраст: 31
Сообщений: 3406
Спасибок: 46729
Лайков: 5
Изображение

Женщина в черном
The Woman in Black


Год выпуска: 2012
Страна: Швеция, Канада, Великобритания
Слоган: «Только не смотри на нее»
Жанр: ужасы, триллер, драма
Продолжительность: 01:35:19
Перевод: Профессиональный (полное дублирование) [лицензия]
Режиссер: Джеймс Уоткинс
Сценарий: Джейн Голдман, Сьюзен Хилл
Продюсер: Саймон Оукс, Брайан Оливер, Ричард Джексон
Оператор: Тим Морис-Джонс
Композитор: Марко Белтрами
В ролях: Дэниел Рэдклифф, Кирен Хайдз, Джанет МакТир, Дэвид Бурк, Шон Дули, Эмма Шори, Молли Хэрмон, Софи Стаки, Миша Хэндли, Джессика Рэйне
Бюджет: $17 000 000
Сборы в мире: $127 730 736
Описание: На дворе - конец девятнадцатого века, но, хотя люди пользуются автомобилями, железными дорогами и телеграфом, человек по-прежнему бессилен перед проявлениями сверхъестественного. Молодой лондонский юрист Артур Киппс вынужден оставить своего 4-летнего сына и отправиться в командировку в уединенную северную деревушку, чтобы составить реестр документов, оставшихся от скончавшегося хозяина поместья Ил Марш. Добравшись до места и пообщавшись с негостеприимными местными жителями, он начинает понимать, что над деревушкой нависла тень мрачной тайны. Когда же рядом со старым кладбищем ему на глаза попадается загадочная женщина, одетая в черное, это малозначительное происшествие знаменует начало череды леденящих кровь смертей в семьях обитателей деревни.
Изображение
MPAA: Изображение
Раздача группы: Изображение
Качество: BDRip, 720p
Формат: Matroska
Видео: AVC; 1280x544 (2.35:1); 4885 Kbps; 23,976 fps; 0,293 bit/pixel
Аудио #1: AC3; 640 Kbps; CBR; 6 ch Russian
Аудио #2: DTS; 1509 Kbps; CBR; 6 ch; 24 bit English
Субтитры: русские, английские
mediainfo
Формат : Matroska
Версия формата : Version 2
Размер файла : 4,78 Гбайт
Продолжительность : 1 ч. 35 м.
Общий поток : 7179 Кбит/сек
Дата кодирования : UTC 2012-06-28 08:15:42
Программа кодирования : mkvmerge v3.2.0 ('Beginnings') built on Feb 12 2010 16:46:17
Библиотека кодирования : libebml v0.7.9 + libmatroska v0.8.1

Видео
Идентификатор : 1
Формат : AVC
Формат/Информация : Advanced Video Codec
Профиль формата : High@L4.1
Параметр CABAC формата : Да
Параметр ReFrames формата : 10 кадров
Идентификатор кодека : V_MPEG4/ISO/AVC
Продолжительность : 1 ч. 35 м.
Битрейт : 5030 Кбит/сек
Ширина : 1280 пикселей
Высота : 544 пикселя
Соотношение сторон : 2,35:1
Частота кадров : 23,976 кадра/сек
Цветовое пространство : YUV
Субдискретизация насыщенности : 4:2:0
Битовая глубина : 8 бит
Тип развёртки : Прогрессивная
Бит/(Пиксели*Кадры) : 0.301
Размер потока : 3,25 Гбайт (68%)
Библиотека кодирования : x264 core 120 r2146 bcd41db
Настройки программы : cabac=1 / ref=10 / deblock=1:-3:-3 / analyse=0x3:0x113 / me=umh / subme=10 / psy=1 / psy_rd=1.00:0.05 / mixed_ref=1 / me_range=32 / chroma_me=1 / trellis=2 / 8x8dct=1 / cqm=0 / deadzone=21,11 / fast_pskip=0 / chroma_qp_offset=-2 / threads=8 / sliced_threads=0 / nr=0 / decimate=1 / interlaced=0 / bluray_compat=0 / constrained_intra=0 / bframes=6 / b_pyramid=2 / b_adapt=2 / b_bias=0 / direct=3 / weightb=1 / open_gop=0 / weightp=2 / keyint=250 / keyint_min=23 / scenecut=40 / intra_refresh=0 / rc_lookahead=40 / rc=2pass / mbtree=0 / bitrate=5030 / ratetol=1.0 / qcomp=0.70 / qpmin=0 / qpmax=69 / qpstep=4 / cplxblur=20.0 / qblur=0.5 / vbv_maxrate=40000 / vbv_bufsize=30000 / nal_hrd=none / ip_ratio=1.40 / pb_ratio=1.30 / aq=2:0.80
Язык : English

Аудио #1
Идентификатор : 2
Формат : AC-3
Формат/Информация : Audio Coding 3
Расширение режима : CM (complete main)
Идентификатор кодека : A_AC3
Продолжительность : 1 ч. 35 м.
Вид битрейта : Постоянный
Битрейт : 640 Кбит/сек
Каналы : 6 каналов
Расположение каналов : Front: L C R, Side: L R, LFE
Частота : 48,0 КГц
Битовая глубина : 16 бит
Метод сжатия : С потерями
Размер потока : 436 Мбайт (9%)
Язык : Russian

Аудио #2
Идентификатор : 3
Формат : DTS
Формат/Информация : Digital Theater Systems
Идентификатор кодека : A_DTS
Продолжительность : 1 ч. 35 м.
Вид битрейта : Постоянный
Битрейт : 1510 Кбит/сек
Каналы : 6 каналов
Расположение каналов : Front: L C R, Side: L R, LFE
Частота : 48,0 КГц
Битовая глубина : 24 бит
Метод сжатия : С потерями
Задержка видео : 11 мс.
Размер потока : 1,01 Гбайт (21%)
Заголовок : DTS.1510.Kbps.English
Язык : English

Текст #1
Идентификатор : 4
Формат : UTF-8
Идентификатор кодека : S_TEXT/UTF8
Идентификатор кодека/Информация : UTF-8 Plain Text
Заголовок : Russian (SRT)
Язык : Russian

Текст #2
Идентификатор : 5
Формат : UTF-8
Идентификатор кодека : S_TEXT/UTF8
Идентификатор кодека/Информация : UTF-8 Plain Text
Заголовок : English (SRT)
Язык : English

Текст #3
Идентификатор : 6
Формат : UTF-8
Идентификатор кодека : S_TEXT/UTF8
Идентификатор кодека/Информация : UTF-8 Plain Text
Заголовок : English (SDH)
Язык : English

Меню
00:00:00.000 : en:Chapter 1
00:06:54.414 : en:Chapter 2
00:12:54.190 : en:Chapter 3
00:17:36.764 : en:Chapter 4
00:26:21.121 : en:Chapter 5
00:30:03.343 : en:Chapter 6
00:36:10.502 : en:Chapter 7
00:39:58.438 : en:Chapter 8
00:45:48.663 : en:Chapter 9
00:51:59.325 : en:Chapter 10
00:58:02.354 : en:Chapter 11
01:03:25.677 : en:Chapter 12
01:08:43.369 : en:Chapter 13
01:12:49.031 : en:Chapter 14
01:17:10.084 : en:Chapter 15
01:25:58.403 : en:Chapter 16

Свернуть
"Знаете ли Вы, что..."
  • Фильм основан на одноимённом романе британской писательницы Сюзан Хилл, впервые опубликованном в октябре 1983 года.
  • В 1987 году по книге Сюзан Хилл была поставлена пьеса, дебютировавшая в театре Стивена Джозефа в городе Сканторп. Два года спустя пьеса переехала в Вест-Энд, где и продолжает идти до настоящего времени.
  • Первоначально продюсеры фильма рассматривали возможность создания его в 3D, но в последующем от этой идеи было решено отказаться.
  • Мальчик, играющий сына героя Дэниэла Рэдклиффа в фильме, на самом деле является крёстным сыном молодого актера. Это предложение в процессе кастинга сделал сам Дэниэл Рэдклифф.
  • Музыкальные шкатулки и механические игрушки в сцене в детской были реальными антикварными предметами того периода, позаимствованными на время съёмок у коллекционера.
  • Машина персонажа Кирена Хайдза это Rolls-Royce Silver Ghost. Этот уникальный автомобиль считается самым дорогим в мире со страховой стоимостью 35 миллионов долларов в 2005 году. На момент съёмок стоимость произведённого в 1907 году автомобиля оценивалась в 57 миллионов долларов.
  • Эдриан Роулинз, актёр, сыгравший отца Гарри Поттера, был главным героем фильма «Женщина в черном» 1989-го года.
Свернуть
Скриншоты

Изображение

Изображение

Изображение

Изображение

Изображение
Свернуть
Не в сети
Профиль  
 Добавлено: 2012-06-28 12:56 (спустя 1 час 5 минут)
Top-seeder
Аватара пользователя
Стаж: 6 лет 10 месяцев
Возраст: 28
Сообщений: 280
Спасибок: 606
Гарри Поттер уже не тот... :(
_________________

Изображение
Приму в дар,или куплю радиотехнику(усилители,колонки)
Изображение
Изображение
Не в сети
Профиль  
Начать новую темуОтветить на тему  [ Сообщений: 2 ] 
Вы не можете начинать темы
Вы не можете отвечать на сообщения
Вы не можете редактировать свои сообщения
Вы не можете удалять свои сообщения