Правила форума

  • В этом разделе создание новых тем Запрещено.
  • Для создания новых тем пользуйтесь Корневым разделом DVD и HD фильмы.
Начать новую темуОтветить на тему  [ Сообщений: 2 ] 
Торрент файл
Размер: 6.65 GB • Зарегистрирован: 2 года 10 месяцев • Статус: T Временный релиз
Скачан: 14 раз • Желающих скачать: 0 • Поблагодарили: 7 раз
 Раздают: 0  |  0 KB/s  ]   Качают: 0  |  0 KB/s  ] 
 Полного источника не было 2 дня 11 часов 
Сообщения
 Добавлено: 2014-01-19 17:37
Аватара пользователя
Стаж: 4 года 1 месяц
Сообщений: 12
Спасибок: 268
Лайков: 2
Жертвенный Лик / Jug Face

Изображение


Год выпуска: 2013
Страна: США (New Company)
Слоган: «Яма хочет, чего он хочет»
Жанр: Ужасы, триллер, драма
Продолжительность: 01:21:19
Версия фильма: Unrated / Полная версия
Перевод: Любительский (двухголосый закадровый) + Оригинальная звуковая дорожка
Субтитры: Нет

Режиссёр: Chad Kinkle
Сценарист: Chad Kinkle
Продюсер: Лорен Семменс, Роберт Тонино, Эндрю ван ден Хутен и другие
Оператор: Крис Генрих
Композитор: Шон Спиллейн
В ролях: Шон Бриджерс, Лорен Эшли Картер, Кэйтлин Каллам, Ларри Фесенден, Дэвид Грейтхаус, Кэти Гросхонг, Скотт Ходжес, Алекс Майзус, Дэниэл Манче, Чип Рамси
Описание: Лесная община поклоняется некой яме, которая, как полагают жители чащи, обладает целительной силой. Дауэй делает из глины, добытой из священной ямы, голову. Согласно легенде, тот, чье лицо изобразится на глиняной голове, должен будет принести себя в жертву во благо общины. Тем временем, Ада узнает, что беременна от своего брата Джессаби и, придя в общину, обнаруживает свое лицо на глиняном изваянии. Испугавшись, девушка прячет кувшин и никому не рассказывает о произошедшем. Но все тайное рано или поздно становится явным..
Рейтинг MPAA: Рейтинг R (Подростки до 17 лет допускаются на фильм только в сопровождении одного из родителей)
Мировая премьера: 23 января 2013
Премьера в России: 23 января 2013
Изображение 4.40 (118)
Изображение 5.2 (1974)

Качество: BDRip 1080
Формат: MKV
Видео кодек: V_MPEG4/ISO/AVC
Аудио кодек: A_AC3
Видео: 2,35:1, 3875 kb/s, 1280x542
Аудио #1: Russian: AC3, 192 kb/s (2 ch) [Любительский (двухголосый закадровый)]
Аудио #2: English: AC3, 640 kb/s (6 ch) [Оригинальная звуковая дорожка]
Субтитры: Нет
Скриншоты
Изображение
Изображение
Изображение
Изображение
Изображение
Свернуть

MediaInfo
Общее
Формат : BDRip
Версия формата : Version 4 / Version 2
Размер файла : 6,65 Гбайт
Продолжительность : 1 ч. 21 м.
Общий поток : 11,7 Мбит/сек
Название фильма : Jug Face
Дата кодирования : UTC 2014-01-17 20:50:43
Программа кодирования : mkvmerge v6.7.0 ('Back to the Ground') 64bit built on Jan 8 2014 15:10:52
Библиотека кодирования : libebml v1.3.0 + libmatroska v1.4.1

Видео
Идентификатор : 1
Формат : AVC
Формат/Информация : Advanced Video Codec
Профиль формата : High@L4.1
Параметр CABAC формата : Да
Параметр ReFrames формата : 5 кадров
Идентификатор кодека : V_MPEG4/ISO/AVC
Продолжительность : 1 ч. 21 м.
Битрейт : 10,9 Мбит/сек
Ширина : 1920 пикселей
Высота : 816 пикселей
Соотношение сторон : 2,35:1
Режим частоты кадров : Постоянный
Частота кадров : 23,976 кадра/сек
Цветовое пространство : YUV
Субдискретизация насыщенности : 4:2:0
Битовая глубина : 8 бит
Тип развёртки : Прогрессивная
Бит/(Пиксели*Кадры) : 0.290
Размер потока : 6,05 Гбайт (91%)
Заголовок : Jug Face
Язык : English
Default : Да
Forced : Нет

Аудио #1
Идентификатор : 2
Формат : AC-3
Формат/Информация : Audio Coding 3
Расширение режима : CM (complete main)
Параметр Endianness формата : Big
Идентификатор кодека : A_AC3
Продолжительность : 1 ч. 21 м.
Вид битрейта : Постоянный
Битрейт : 192 Кбит/сек
Каналы : 2 канала
Расположение каналов : Front: L R
Частота : 48,0 КГц
Битовая глубина : 16 бит
Метод сжатия : С потерями
Размер потока : 112 Мбайт (2%)
Заголовок : den904 and DeadSno
Язык : Russian
Default : Да
Forced : Да

Аудио #2
Идентификатор : 3
Формат : AC-3
Формат/Информация : Audio Coding 3
Расширение режима : CM (complete main)
Параметр Endianness формата : Big
Идентификатор кодека : A_AC3
Продолжительность : 1 ч. 21 м.
Вид битрейта : Постоянный
Битрейт : 640 Кбит/сек
Каналы : 6 каналов
Расположение каналов : Front: L C R, Side: L R, LFE
Частота : 48,0 КГц
Битовая глубина : 16 бит
Метод сжатия : С потерями
Размер потока : 372 Мбайт (5%)
Язык : English
Default : Нет
Forced : Нет
Свернуть

Изображение
_________________
Изображение
Не в сети
Профиль  
 Добавлено: 2014-01-21 00:39 (спустя 1 день 7 часов)
Аватара пользователя
Стаж: 6 лет 9 месяцев
Возраст: 30
Сообщений: 91
Лайков: 6
Неплохой фильм,актеры играют хорошо,качество хорошее,перевод - дерьмо. Ужасы больше не на тему мистики а очень много маниакальных задатков .любителям трэша,инцеста .... и прочего развлекалова можно смело смотреть.На один раз пропустить как сказочку на ночь и потом крепко уснуть.Один из недостатков - так это мало жести,траха,изнасилования.Уж если фильм задумывался быть жестоким и артхаусным - то надо отрабатывать по полной .А так фильм для детишек в скобках.Ах да конец тоже неочем,не раскрывается вся суть как будто должно быть продолжение,но я сомневаюсь что оно будет так как на хорошую оценку этот фильм оценят очень-очень мало людей .Хотя... кто его знает куда мир катиться может основной массе "планктона" только и подавай кишков.мяса и изврата.
Не в сети
Профиль  
Начать новую темуОтветить на тему  [ Сообщений: 2 ] 
Вы не можете начинать темы
Вы не можете отвечать на сообщения
Вы не можете редактировать свои сообщения
Вы не можете удалять свои сообщения