Правила форума

  • В этом разделе создание новых тем Запрещено.
  • Для создания новых тем пользуйтесь Корневым разделом DVD и HD фильмы.
Начать новую темуОтветить на тему  [ Сообщений: 3 ] 
Торрент файл
Размер: 8.82 GB • Зарегистрирован: 4 года 10 месяцев • Статус: Проверено
Скачан: 188 раз • Желающих скачать: 0 • Поблагодарили: 32 раза
 Раздают: 0  |  0 KB/s  ]   Качают: 0  |  0 KB/s  ] 
 Полного источника не было 2 месяца 26 дней 
Сообщения
 Добавлено: 2012-01-31 18:43
Top-seeder
Аватара пользователя
Стаж: 9 лет
Сообщений: 1399
Спасибок: 28652
Лайков: 8
Живая сталь / Real Steel

Изображение


Информация о фильме:
Название: Живая сталь
Оригинальное название: Real Steel
Год выхода: 2011
Жанр: фантастика, боевик, семейный
Режиссер: Шон Леви
В ролях: Хью Джекман, Дакота Гойо, Эванджелин Лилли, Энтони Маки, Кевин Дюран, Хоуп Дэвис, Джеймс Ребхорн, Марко Руджери, Карл Йун, Ольга Фонда

О фильме:
События фильма происходят в будущем, где бокс запрещен за негуманностью и заменен боями 2000-фунтовых роботов, управляемых людьми. Бывший боксер, а теперь промоутер, переметнувшийся в Робобокс, решает, что наконец нашел своего чемпиона, когда ему попадается выбракованный, но очень способный робот. Одновременно на жизненном пути героя возникает 11-летний пацан, оказывающийся его сыном. И по мере того, как машина пробивает свой путь к вершине, обретшие друг друга отец и сын учатся дружить.

Выпущено: США, Индия / 21 Laps Entertainment, Angry Films, DreamWorks SKG, ImageMovers
Продолжительность: 02:06:51
Озвучивание: Дублированное [лицензия]

Файл:
Формат: MKV
Качество: BDRip 720p
Видео: 6300 kb/s, 1280x544
Аудио: Russian: AC3, 640 kb/s (6 ch) / Russian: DTS, 1536 kb/s (6 ch) [Ю.Сербин] / English: DTS, 1536 kb/s (6 ch)
Субтитры: Russian, English

MI
Общее
Уникальный идентификатор : 186232001889671274666130330021035328154 (0x8C1AFA99780AE47786FFCA9557C9429A)
Полное имя : D:\Закачки\Живая сталь.mkv
Формат : Matroska
Размер файла : 8,82 Гбайт
Продолжительность : 2 ч. 6 м.
Общий поток : 9956 Кбит/сек
Дата кодирования : UTC 2012-01-31 10:24:24
Программа кодирования : mkvmerge v4.5.0 ('Speed of Light') сборка от Feb 15 2011 12:50:20
Библиотека кодирования : libebml v1.2.0 + libmatroska v1.1.0

Видео
Идентификатор : 1
Формат : AVC
Формат/Информация : Advanced Video Codec
Профиль формата : High@L4.1
Параметр CABAC формата : Да
Параметр ReFrames формата : 12 кадров
Режим смешивания : Header stripping
Идентификатор кодека : V_MPEG4/ISO/AVC
Продолжительность : 2 ч. 6 м.
Битрейт : 6300 Кбит/сек
Ширина : 1280 пикс.
Высота : 544 пикс.
Соотношение сторон : 2,35:1
Частота кадров : 23,976 кадр/сек
Цветовое пространство : YUV
Подвыборка цветности : 4:2:0
Битовая глубина : 8 бит
Тип развёртки : Прогрессивная
Бит/(Пиксели*Кадры) : 0.377
Размер потока : 5,40 Гбайт (61%)
Библиотека кодирования : x264 core 120 r2120 0c7dab9
Настройки программы : cabac=1 / ref=12 / deblock=1:-3:-3 / analyse=0x3:0x133 / me=umh / subme=10 / psy=1 / psy_rd=1.05:0.05 / mixed_ref=1 / me_range=32 / chroma_me=1 / trellis=2 / 8x8dct=1 / cqm=0 / deadzone=21,11 / fast_pskip=0 / chroma_qp_offset=-3 / threads=12 / sliced_threads=0 / nr=0 / decimate=0 / interlaced=0 / bluray_compat=0 / constrained_intra=0 / bframes=7 / b_pyramid=2 / b_adapt=2 / b_bias=0 / direct=3 / weightb=1 / open_gop=0 / weightp=2 / keyint=250 / keyint_min=23 / scenecut=40 / intra_refresh=0 / rc=2pass / mbtree=0 / bitrate=6300 / ratetol=1.0 / qcomp=0.60 / qpmin=0 / qpmax=69 / qpstep=4 / cplxblur=20.0 / qblur=0.5 / ip_ratio=1.40 / pb_ratio=1.30 / aq=1:0.90
Язык : English

Аудио #1
Идентификатор : 2
Формат : AC-3
Формат/Информация : Audio Coding 3
Расширение режима : CM (complete main)
Режим смешивания : Header stripping
Идентификатор кодека : A_AC3
Продолжительность : 2 ч. 6 м.
Вид битрейта : Постоянный
Битрейт : 640 Кбит/сек
Каналы : 6 каналов
Расположение каналов : Front: L C R, Side: L R, LFE
Частота : 48,0 КГц
Битовая глубина : 16 бит
Метод сжатия : С потерями
Размер потока : 581 Мбайт (6%)
Заголовок : BD EUR
Язык : Russian

Аудио #2
Идентификатор : 3
Формат : DTS
Формат/Информация : Digital Theater Systems
Режим смешивания : Header stripping
Идентификатор кодека : A_DTS
Продолжительность : 2 ч. 6 м.
Вид битрейта : Постоянный
Битрейт : 1510 Кбит/сек
Каналы : 6 каналов
Расположение каналов : Front: L C R, Side: L R, LFE
Частота : 48,0 КГц
Битовая глубина : 24 бит
Метод сжатия : С потерями
Задержка видео : 11 мс.
Размер потока : 1,34 Гбайт (15%)
Заголовок : DTS 5.1 Сербин
Язык : Russian

Аудио #3
Идентификатор : 4
Формат : DTS
Формат/Информация : Digital Theater Systems
Режим смешивания : Header stripping
Идентификатор кодека : A_DTS
Продолжительность : 2 ч. 6 м.
Вид битрейта : Постоянный
Битрейт : 1510 Кбит/сек
Каналы : 6 каналов
Расположение каналов : Front: L C R, Side: L R, LFE
Частота : 48,0 КГц
Битовая глубина : 24 бит
Метод сжатия : С потерями
Задержка видео : 22 мс.
Размер потока : 1,34 Гбайт (15%)
Заголовок : DTS 5.1
Язык : English

Текст #1
Идентификатор : 5
Формат : UTF-8
Идентификатор кодека : S_TEXT/UTF8
Идентификатор кодека/Информация : UTF-8 Plain Text
Заголовок : Voronine по Дубляжу.
Язык : Russian

Текст #2
Идентификатор : 6
Формат : UTF-8
Идентификатор кодека : S_TEXT/UTF8
Идентификатор кодека/Информация : UTF-8 Plain Text
Заголовок : English
Язык : English

Меню
00:00:00.000 : en:Opening Titles
00:03:00.472 : en:Charlie Kenton
00:10:38.304 : en:Wheeling & Dealing
00:18:50.546 : en:Noisy Boy Has Arrived
00:24:29.885 : en:Crash Palace
00:34:14.761 : en:Metal Valley
00:41:22.355 : en:Atom
00:48:46.131 : en:He Was Beautiful
00:52:08.709 : en:The Champ Is Here
00:57:15.015 : en:The Zoo
01:05:01.231 : en:Training Atom
01:12:33.974 : en:Climbing The Ranks
01:18:26.994 : en:Twin Cities
01:26:28.517 : en:Fight For Me
01:32:50.773 : en:Go Get Him, Charlie
01:39:19.704 : en:The Mighty Zeus
01:48:22.663 : en:Toe-To-Toe
01:52:26.865 : en:Final Round
01:57:21.868 : en:People's Champion
02:00:50.326 : en:End Credits

Свернуть

Скриншоты
ИзображениеИзображениеИзображениеИзображение
Свернуть
Не в сети
Профиль  
 Добавлено: 2012-03-08 01:10 (спустя 1 месяц 7 дней)
Аватара пользователя
Стаж: 7 лет 6 месяцев
Возраст: 51
Сообщений: 1782
Лайков: 1401
Очень хороший фильм - живой, динамичный. За Хью Джекмана даже говорить не буду - он всегда отличный актер, а в этом фильме выложился на все сто, и нашел свою изюминку. Ну чего там говорить - смотреть на старину Хью - чистое удовольствие. Еще очень хорош парнишка, его сын (Дакота Гойо - я вот вот все думаю, почему у него и девочки Дакоты Фэннинг одинаковые имена... Понятно, что назвали в честь штата... Но если бы у нас назвали мальчика или девочку "Нижегородская область", то вряд ли бы ему легко пришлось по жизни).

Этот фильм не попадает в какие-то строгие рамки. В принципе, он должен понравиться всем.

В копилку.
Не в сети
Профиль  
 Добавлено: 2013-03-19 22:38 (спустя 1 год)
Стаж: 6 лет 10 месяцев
Сообщений: 12
плиззззззззз скорости!
Не в сети
Профиль  
Начать новую темуОтветить на тему  [ Сообщений: 3 ] 
Вы не можете начинать темы
Вы не можете отвечать на сообщения
Вы не можете редактировать свои сообщения
Вы не можете удалять свои сообщения