Правила форума

  • В этом разделе создание новых тем Запрещено.
  • Для создания новых тем пользуйтесь Корневым разделом DVD и HD фильмы.
Начать новую темуОтветить на тему  [ 1 сообщение ] 
Торрент файл
Размер: 8.39 GB • Зарегистрирован: 6 лет • Статус: Проверено
Скачан: 73 раза • Желающих скачать: 0 • Поблагодарили: 14 раз
 Раздают: 0  |  0 KB/s  ]   Качают: 0  |  0 KB/s  ] 
 Полного источника не было 2 дня 
Сообщения
 Добавлено: 2010-11-29 10:54
Инквизитор
Аватара пользователя
Стаж: 8 лет 8 месяцев
Сообщений: 3753
Спасибок: 28360
Лайков: 9
Изображение

Жизнь Дэвида Гейла / The Life of David Gale


Год выпуска: 2003
Страна: США, Германия, Великобритания
Слоган: «The crime is clear. The truth is not.»
Жанр: триллер, драма, криминал
Продолжительность: 02:11:05
Перевод: Профессиональный (многоголосый, закадровый)
Режиссер: Алан Паркер
Сценарий: Чарльз Рэндольф
Продюсер: Мориц Борман, Николас Кейдж, Гай Ист
Оператор: Майкл Серезин
Композитор: Алекс Паркер, Джейк Паркер
В ролях: Кевин Спэйси, Кейт Уинслет, Лора Линни, Габриэль Мэнн, Мэтт Крэйвен, Леон Риппи
Бюджет: $38 000 000
Сборы в США: $19 955 598
Сборы в мире: $38 955 598
Описание: Дэвид Гейл - человек, который пробовал жить в соответствии со своими принципами, но, в причудливом повороте судьбы, этот преданный отец, популярный профессор и ярый противник смертной казни окажется в камере смертников за убийство активистки Констанции Харравей. За три дня до исполнения приговора Гейл соглашается дать интервью репортеру Битси Блум.
Но журналистка вскоре понимает, что ее участие в этом деле не ограничится одним интервью, и что жизнь человека находится в ее руках. Поставив на кон свою собственную безопасность, она начинает расследовать те ужасные события, которые окружали смерть Констанции.

Изображение
MPAA: Изображение
Мировая премьера: 7 февраля 2003
Релиз на DVD: 15 января 2009, «Парадиз-ВC»
Раздача группы: Изображение
Качество: D-Theater Rip
Формат: MKV
Видео: 1280x544, 7177 kbps, 23.976 fps
• Аудио1: Русский AC3 5.1, 48 KHz, 448 kbps (с лицензии Pyramid Home Video)
• Аудио2: Русский AC3 5.1, 48 KHz, 448 kbps (с переиздания R1)
• Аудио3: Русский AC3 5.1, 48 KHz, 448 kbps (ещё с одного переиздания R1)
• Аудио4: Английский AC3 5.1, 48 KHz, 448 kbps (с DVD R1)
• Аудио5: Английский AC3 2.0, 48 KHz, 192 kbps (комментарии режиссёра)
Субтитры: Русские, английские, бразильские, болгарские, чешские, датские, голландские, немецкие, финские, французские, иврит, хорватские, венгерские, итальянские, норвежские, польские, португальские, румынские, словенские, испанские, сербские, шведские, турецкие
MediaInfo

General
Complete name : Life of David Gale.2003.DTheater.Rip.720p.h264.3xRus.Eng.Commentary.mkv
Format : Matroska
File size : 8.39 GiB
Duration : 2h 11mn
Overall bit rate : 9 164 Kbps
Encoded date : UTC 2010-01-11 14:35:38
Writing application : mkvmerge v3.0.0 ('Hang up your Hang-Ups') built on Dec 12 2009 15:20:35
Writing library : libebml v0.7.9 + libmatroska v0.8.1
Video
ID : 1
Format : AVC
Format/Info : Advanced Video Codec
Format profile : High@L4.1
Format settings, CABAC : Yes
Format settings, ReFrames : 5 frames
Muxing mode : Container profile=Unknown@4.1
Codec ID : V_MPEG4/ISO/AVC
Duration : 2h 10mn
Bit rate : 6 998 Kbps
Nominal bit rate : 7 177 Kbps
Width : 1 280 pixels
Height : 544 pixels
Display aspect ratio : 2.35:1
Frame rate : 23.976 fps
Resolution : 8 bits
Colorimetry : 4:2:0
Scan type : Progressive
Bits/(Pixel*Frame) : 0.419
Stream size : 6.40 GiB (76%)
Writing library : x264 core 79 r1354M 636f98f
Encoding settings : cabac=1 / ref=5 / deblock=1:-3:-3 / analyse=0x3:0x113 / me=umh / subme=9 / psy=1 / psy_rd=1.1:0.0 / mixed_ref=1 / me_range=32 / chroma_me=1 / trellis=2 / 8x8dct=1 / cqm=0 / deadzone=21,11 / chroma_qp_offset=-2 / threads=6 / nr=0 / decimate=1 / mbaff=0 / constrained_intra=0 / bframes=5 / b_pyramid=0 / b_adapt=2 / b_bias=0 / direct=3 / wpredb=1 / wpredp=2 / keyint=250 / keyint_min=25 / scenecut=40 / rc_lookahead=0 / rc=2pass / mbtree=0 / bitrate=7177 / ratetol=1.0 / qcomp=0.60 / qpmin=10 / qpmax=51 / qpstep=4 / cplxblur=20.0 / qblur=0.5 / vbv_maxrate=50000 / vbv_bufsize=50000 / ip_ratio=1.40 / pb_ratio=1.30 / aq=1:1.00
Language : English
Audio #1
ID : 2
Format : AC-3
Format/Info : Audio Coding 3
Codec ID : A_AC3
Duration : 2h 11mn
Bit rate mode : Constant
Bit rate : 448 Kbps
Channel(s) : 6 channels
Channel positions : Front: L C R, Surround: L R, LFE
Sampling rate : 48.0 KHz
Stream size : 420 MiB (5%)
Title : Licence (Pyramid) AC3 5.1 448 kbps
Language : Russian
Audio #2
ID : 3
Format : AC-3
Format/Info : Audio Coding 3
Codec ID : A_AC3
Duration : 2h 11mn
Bit rate mode : Constant
Bit rate : 448 Kbps
Channel(s) : 6 channels
Channel positions : Front: L C R, Surround: L R, LFE
Sampling rate : 48.0 KHz
Stream size : 420 MiB (5%)
Title : Mnogogoloska1 (R1) AC3 5.1 448 kbps
Language : Russian
Audio #3
ID : 4
Format : AC-3
Format/Info : Audio Coding 3
Codec ID : A_AC3
Duration : 2h 11mn
Bit rate mode : Constant
Bit rate : 448 Kbps
Channel(s) : 6 channels
Channel positions : Front: L C R, Surround: L R, LFE
Sampling rate : 48.0 KHz
Stream size : 420 MiB (5%)
Title : Mnogogoloska2 (R1) AC3 5.1 448 kbps
Language : Russian
Audio #4
ID : 5
Format : AC-3
Format/Info : Audio Coding 3
Codec ID : A_AC3
Duration : 2h 11mn
Bit rate mode : Constant
Bit rate : 448 Kbps
Channel(s) : 6 channels
Channel positions : Front: L C R, Surround: L R, LFE
Sampling rate : 48.0 KHz
Stream size : 420 MiB (5%)
Title : AC3 5.1 448 kbps
Language : English
Audio #5
ID : 6
Format : AC-3
Format/Info : Audio Coding 3
Format profile : Dolby Digital
Codec ID : A_AC3
Duration : 2h 11mn
Bit rate mode : Constant
Bit rate : 192 Kbps
Channel(s) : 2 channels
Channel positions : L R
Sampling rate : 48.0 KHz
Stream size : 180 MiB (2%)
Title : Commentary with Director Alan Parker AC3 2.0 192 kbps
Language : English
Text #1
ID : 7
Format : UTF-8
Codec ID : S_TEXT/UTF8
Codec ID/Info : UTF-8 Plain Text
Language : Russian
Text #2
ID : 8
Format : UTF-8
Codec ID : S_TEXT/UTF8
Codec ID/Info : UTF-8 Plain Text
Language : English
Text #3
ID : 9
Format : UTF-8
Codec ID : S_TEXT/UTF8
Codec ID/Info : UTF-8 Plain Text
Title : Brasilian
Language : Portuguese
Text #4
ID : 10
Format : UTF-8
Codec ID : S_TEXT/UTF8
Codec ID/Info : UTF-8 Plain Text
Language : Bulgarian
Text #5
ID : 11
Format : UTF-8
Codec ID : S_TEXT/UTF8
Codec ID/Info : UTF-8 Plain Text
Language : Czech
Text #6
ID : 12
Format : UTF-8
Codec ID : S_TEXT/UTF8
Codec ID/Info : UTF-8 Plain Text
Language : Danish
Text #7
ID : 13
Format : UTF-8
Codec ID : S_TEXT/UTF8
Codec ID/Info : UTF-8 Plain Text
Language : Dutch
Text #8
ID : 14
Format : UTF-8
Codec ID : S_TEXT/UTF8
Codec ID/Info : UTF-8 Plain Text
Language : German
Text #9
ID : 15
Format : UTF-8
Codec ID : S_TEXT/UTF8
Codec ID/Info : UTF-8 Plain Text
Language : Finnish
Text #10
ID : 16
Format : UTF-8
Codec ID : S_TEXT/UTF8
Codec ID/Info : UTF-8 Plain Text
Language : French
Text #11
ID : 17
Format : UTF-8
Codec ID : S_TEXT/UTF8
Codec ID/Info : UTF-8 Plain Text
Language : Hebrew
Text #12
ID : 18
Format : UTF-8
Codec ID : S_TEXT/UTF8
Codec ID/Info : UTF-8 Plain Text
Language : Croatian
Text #13
ID : 19
Format : UTF-8
Codec ID : S_TEXT/UTF8
Codec ID/Info : UTF-8 Plain Text
Language : Hungarian
Text #14
ID : 20
Format : UTF-8
Codec ID : S_TEXT/UTF8
Codec ID/Info : UTF-8 Plain Text
Language : Italian
Text #15
ID : 21
Format : UTF-8
Codec ID : S_TEXT/UTF8
Codec ID/Info : UTF-8 Plain Text
Language : Norwegian
Text #16
ID : 22
Format : UTF-8
Codec ID : S_TEXT/UTF8
Codec ID/Info : UTF-8 Plain Text
Language : Polish
Text #17
ID : 23
Format : UTF-8
Codec ID : S_TEXT/UTF8
Codec ID/Info : UTF-8 Plain Text
Language : Portuguese
Text #18
ID : 24
Format : UTF-8
Codec ID : S_TEXT/UTF8
Codec ID/Info : UTF-8 Plain Text
Language : Romanian
Text #19
ID : 25
Format : UTF-8
Codec ID : S_TEXT/UTF8
Codec ID/Info : UTF-8 Plain Text
Language : Slovenian
Text #20
ID : 26
Format : UTF-8
Codec ID : S_TEXT/UTF8
Codec ID/Info : UTF-8 Plain Text
Language : Spanish
Text #21
ID : 27
Format : UTF-8
Codec ID : S_TEXT/UTF8
Codec ID/Info : UTF-8 Plain Text
Language : Serbian
Text #22
ID : 28
Format : UTF-8
Codec ID : S_TEXT/UTF8
Codec ID/Info : UTF-8 Plain Text
Language : Swedish
Text #23
ID : 29
Format : UTF-8
Codec ID : S_TEXT/UTF8
Codec ID/Info : UTF-8 Plain Text
Language : Turkish
Menu
00:00:39.000 : :01. News Magazine
00:06:35.000 : :02. Churches and Prisons
00:13:43.153 : :03. Ellis
00:18:52.835 : :04. Gale's Lecture
00:25:40.530 : :05. The Party
00:33:42.258 : :06. Batter's Box
00:42:02.754 : :07. Goth Girl Tour
00:45:49.000 : :08. You Know I'm Innocent
00:52:18.989 : :09. Downward Spiral
00:59:42.137 : :10. Off the Wagon
01:02:26.884 : :11. A Small Difficult Thing
01:07:20.925 : :12. Motel Video
01:13:58.193 : :13. Cowboy Cat & Mouse
01:19:07.876 : :14. Make It Stop
01:27:18.988 : :15. Death Is a Gift
01:32:15.114 : :16. Reenactment
01:42:46.990 : :17. Dusty's Cabin
01:47:32.690 : :18. Give Me the Time
01:58:55.659 : :19. Media Frenzy/Barcelona
02:03:29.000 : :20. Key to Your Freedom/End Titles
Свернуть
"Знаете ли Вы, что..."
  • Алан Паркер рассматривал Джорджа Клуни и Николаса Кейджа в качестве претендентов на роль Гейла.
  • В роли Битси Блум должна была сняться Николь Кидман, но актриса отказалась принять участие в фильме.
  • Мэтт Крэвен, исполнитель роли Дасти Райта, лично управлял автомобилем во время сцены погони, не прибегая к помощи каскадера.
Свернуть

Скриншоты

Изображение
Изображение
Изображение
Изображение
Изображение
Свернуть
Не в сети
Профиль  
Начать новую темуОтветить на тему  [ 1 сообщение ] 
Вы не можете начинать темы
Вы не можете отвечать на сообщения
Вы не можете редактировать свои сообщения
Вы не можете удалять свои сообщения