Правила форума

  • В этом разделе создание новых тем Запрещено.
  • Для создания новых тем пользуйтесь Корневым разделом DVD и HD фильмы.
Начать новую темуОтветить на тему  [ 1 сообщение ] 
Торрент файл
Размер: 12.14 GB • Зарегистрирован: 3 года 4 месяца • Статус: Проверено
Скачан: 38 раз • Желающих скачать: 0 • Поблагодарили: 5 раз
 Раздают: 1  |  0 KB/s  ]   Качают: 0  |  0 KB/s  ] 
Сообщения
 Добавлено: 2013-10-27 11:17
Модератор релиз-группы
Аватара пользователя
Стаж: 7 лет 8 месяцев
Возраст: 29
Сообщений: 9789
Спасибок: 23729
Лайков: 103
Изображение

Жизнь на волне
Soul Surfer


Год выпуска: 2011
Страна: США
Слоган: «When you come back from a loss, beat the odds, and never say never, you find a champion.»
Жанр: драма, спорт
Продолжительность: 01:46:27
Перевод: Профессиональный (многоголосый, закадровый)
Авторский (Назаров Владимир)

Режиссер: Шон МакНамара
Сценарий: Шон МакНамара, Дебора Шварц, Дуглас Шварц, Майкл Берк, Мэтт Аллен
Продюсер: Шон МакНамара, Дуглас Шварц, Дэвид Бруквелл, Дэвид Зелон, Дач Хофстеттер
Оператор: Джон Р. Леонетти
Композитор: Марко Белтрами
В ролях: Анна-София Робб, Хелен Хант, Деннис Куэйд, Лоррэйн Николсон, Кевин Сорбо, Кэрри Андервуд, Росс Томас, Крис Брошу, Соня Балморес, Джереми Самптер, Крэйг Т. Нельсон, Брэнском Ричмонд
Бюджет: $18 000 000
Сборы в США: $43 853 424
Сборы в мире: $47 088 990
Мировая премьера: 8 апреля 2011
Описание: Спортивный байопик о жизни серфингистки Бетани Хэмилтон. С детства Бетани увлекалась серфингом, но в 13 лет у северного побережья Кауай на нее напала акула; в результате атаки девушка осталась без левой руки и чуть было не погибла. Но сила воли и настоящий характер сыграли свое дело - Бэттани, несмотря ни на что, вновь встала на доску и начала принимать участие в соревнованиях на правах полностью здорового серфера.

Изображение User Rating: 7.836 (5107)
Изображение User Rating: 6.90 (19 242)
MPAA: PG - Рекомендуется присутствие родителей
Раздача группы: Изображение
Релиз группы: Изображение
Качество: BDRip, 1080p
Формат: MKV
Видео: AVC; 1920x800 (2.40:1); 12794 Kbps; 23,976 fps; 0,347 bit/pixel
Аудио №1: русский; AC3; 192 Kbps; CBR; 2 ch
Аудио №2: русский; DTS; 1510 Kbps; CBR; 6 ch; 24 bit
Аудио №3: DTS; 1510 Kbps; CBR; 6 ch; 24 bit

Субтитры №1: Romanian
Субтитры №2: русские
Субтитры №3: английские

mediainfo
Общее
Уникальный идентификатор : 193042681661724766231680907606393956691 (0x913AAB09A1A09D4FB3AD502F0DF52953)
Полное имя : D:\TORRENT\Soul.Surfer.2011.BluRay.1080p.Rus.Eng.Subs-CHD.mkv
Формат : Matroska
Размер файла : 12,1 Гбайт
Продолжительность : 1 ч. 46 м.
Общий поток : 16,3 Мбит/сек
Дата кодирования : UTC 2013-07-16 09:10:57
Программа кодирования : mkvmerge v4.9.1 ('Ich will') built on Jul 11 2011 23:53:15
Библиотека кодирования : libebml v1.2.1 + libmatroska v1.1.1

Видео
Идентификатор : 1
Формат : AVC
Формат/Информация : Advanced Video Codec
Профиль формата : High@L4.1
Параметр CABAC формата : Да
Параметр ReFrames формата : 5 кадров
Параметры GOP формата : M=4, N=40
Идентификатор кодека : V_MPEG4/ISO/AVC
Продолжительность : 1 ч. 46 м.
Битрейт : 13,1 Мбит/сек
Ширина : 1920 пикс.
Высота : 800 пикс.
Соотношение сторон : 2,40:1
Частота кадров : 23,976 кадр/сек
Цветовое пространство : YUV
Подвыборка цветности : 4:2:0
Битовая глубина : 8 бит
Тип развёртки : Прогрессивная
Бит/(Пиксели*Кадры) : 0.356
Размер потока : 9,51 Гбайт (78%)
Заголовок : Soul.Surfer.2011.BluRay.1080p.DTS.x264-CHD
Библиотека кодирования : x264 core 114 r1924 08d04a4
Настройки программы : cabac=1 / ref=5 / deblock=1:-3:-3 / analyse=0x3:0x113 / me=umh / subme=10 / psy=1 / psy_rd=1.05:0.10 / mixed_ref=1 / me_range=48 / chroma_me=1 / trellis=2 / 8x8dct=1 / cqm=2 / deadzone=21,11 / fast_pskip=0 / chroma_qp_offset=-2 / threads=12 / sliced_threads=0 / nr=0 / decimate=1 / interlaced=0 / constrained_intra=0 / bframes=6 / b_pyramid=2 / b_adapt=2 / b_bias=0 / direct=3 / weightb=1 / open_gop=0 / weightp=2 / keyint=250 / keyint_min=23 / scenecut=40 / intra_refresh=0 / rc_lookahead=60 / rc=2pass / mbtree=1 / bitrate=13113 / ratetol=1.0 / qcomp=0.70 / qpmin=1 / qpmax=63 / qpstep=4 / cplxblur=20.0 / qblur=0.5 / vbv_maxrate=40000 / vbv_bufsize=40000 / nal_hrd=none / ip_ratio=1.40 / aq=2:0.80
Язык : English

Аудио #1
Идентификатор : 2
Формат : AC-3
Формат/Информация : Audio Coding 3
Расширение режима : CM (complete main)
Идентификатор кодека : A_AC3
Продолжительность : 1 ч. 46 м.
Вид битрейта : Постоянный
Битрейт : 192 Кбит/сек
Каналы : 2 канала
Расположение каналов : Front: L R
Частота : 48,0 КГц
Битовая глубина : 16 бит
Метод сжатия : С потерями
Размер потока : 146 Мбайт (1%)
Язык : Russian

Аудио #2
Идентификатор : 3
Формат : DTS
Формат/Информация : Digital Theater Systems
Идентификатор кодека : A_DTS
Продолжительность : 1 ч. 46 м.
Вид битрейта : Постоянный
Битрейт : 1510 Кбит/сек
Каналы : 6 каналов
Расположение каналов : Front: L C R, Side: L R, LFE
Частота : 48,0 КГц
Битовая глубина : 24 бит
Метод сжатия : С потерями
Задержка видео : 11 мс.
Размер потока : 1,12 Гбайт (9%)
Заголовок : - Авторский VadimNaz - DTS 5.1 1536 kbps
Язык : Russian

Аудио #3
Идентификатор : 4
Формат : DTS
Формат/Информация : Digital Theater Systems
Идентификатор кодека : A_DTS
Продолжительность : 1 ч. 46 м.
Вид битрейта : Постоянный
Битрейт : 1510 Кбит/сек
Каналы : 6 каналов
Расположение каналов : Front: L C R, Side: L R, LFE
Частота : 48,0 КГц
Битовая глубина : 24 бит
Метод сжатия : С потерями
Задержка видео : 11 мс.
Размер потока : 1,12 Гбайт (9%)
Заголовок : - Оригинал - DTS 5.1 1536 kbps
Язык : English

Текст #1
Идентификатор : 5
Формат : UTF-8
Идентификатор кодека : S_TEXT/UTF8
Идентификатор кодека/Информация : UTF-8 Plain Text
Язык : Romanian

Текст #2
Идентификатор : 6
Формат : UTF-8
Идентификатор кодека : S_TEXT/UTF8
Идентификатор кодека/Информация : UTF-8 Plain Text
Язык : Russian

Текст #3
Идентификатор : 7
Формат : UTF-8
Идентификатор кодека : S_TEXT/UTF8
Идентификатор кодека/Информация : UTF-8 Plain Text
Заголовок : English
Язык : English

Меню
00:00:00.000 : en:00:00:00.000
00:07:22.484 : en:00:07:22.484
00:12:47.266 : en:00:12:47.266
00:18:21.600 : en:00:18:21.600
00:25:32.823 : en:00:25:32.823
00:32:06.174 : en:00:32:06.174
00:36:42.992 : en:00:36:42.992
00:42:21.789 : en:00:42:21.789
00:47:09.243 : en:00:47:09.243
00:54:02.990 : en:00:54:02.990
00:57:30.447 : en:00:57:30.447
01:05:23.253 : en:01:05:23.253
01:10:24.387 : en:01:10:24.387
01:23:11.403 : en:01:23:11.403
01:30:30.175 : en:01:30:30.175
01:36:11.724 : en:01:36:11.724


Свернуть
"Знаете ли Вы, что..."
  • Картина основана на книге-биографии Бетани Хэмилтон «Soul Surfer: A True Story of Faith, Family, and Fighting to Get Back on the Board» (2004). Создатели фильма также дополнительно интервьюировали её семью, чтобы выяснить неопубликованные подробности истории.
Свернуть
Скриншоты

Изображение
Изображение
Изображение
Изображение
Изображение
Изображение
Изображение
Изображение
Изображение
Свернуть


Тема поднималась пользователем volkov2009 2013-10-27 11:17.
Не в сети
Профиль  
Начать новую темуОтветить на тему  [ 1 сообщение ] 
Вы не можете начинать темы
Вы не можете отвечать на сообщения
Вы не можете редактировать свои сообщения
Вы не можете удалять свои сообщения