Правила форума

  • В этом разделе создание новых тем Запрещено.
  • Для создания новых тем пользуйтесь Корневым разделом DVD и HD фильмы.
Начать новую темуОтветить на тему  [ Сообщений: 11 ] 
Торрент файл
Размер: 9.03 GB • Зарегистрирован: 5 лет 10 месяцев • Статус: Проверено
Скачан: 182 раза • Желающих скачать: 0 • Поблагодарили: 36 раз
 Раздают: 0  |  0 KB/s  ]   Качают: 0  |  0 KB/s  ] 
 Полного источника не было 3 года 
Сообщения
 Добавлено: 2011-01-24 19:54
Аватара пользователя
Стаж: 6 лет
Возраст: 26
Сообщений: 113
Спасибок: 691
Жизнь за гранью / После жизни / After.Life
«Дикий страх... сильнее боли!»

Изображение


Год выпуска: 2009
Страна: США, Lleju Productions
Жанр: Ужасы, Триллер, Драма
Продолжительность: 01:42:53
Перевод: Дублированное
Режиссёр: Агнешка Войтович-Восло
В ролях: Кристина Риччи, Лиам Нисон, Джастин Лонг, Чандлер Кентербери, Джош Чарльз, Селия Уэстон, Шулер Хенсли, Лорел Брайс, Лори Коул, Майкл Джеррард
Описание: Молодая женщина, пребывающая в трансцендентном состоянии между жизнью и смертью, борется против перспективы быть похороненной заживо распорядителем похорон, держащим ее судьбу в своих руках.
Изображение 6.348(2,311 votes)
Изображение 6.1/10 (7,802 votes)
Релиз Группы: Изображение

Раздача Группы: Изображение
Качество: BDRip, 1080p
Формат: MKV
Видео: 8910 kb/s, 1920x798
Аудио #1: Russian: AC3, 448 kb/s (6 ch) [дубляж]
Аудио #2: Russian: DTS, 1510 kb/s (6 ch) [Ю.Сербин]
Аудио #3: English: DTS, 1510 kb/s (6 ch)
Аудио #4: English: AC3, 192 kb/s (2 ch) [commentary]
Субтитры: Russian, Romanian, English

Изображение

Mediainfo
Общее
Уникальный идентификатор : 223672304087985587539606950959066446375 (0xA845B8046956FE91B9D59604B0A8FA27)
Полное имя : E:\Загрузки с Utorrent\After.Life.2010.1080p.BluRay.x264.2xRus.Eng.[uniongang.tv].mkv
Формат : Matroska
Размер файла : 9,03 Гбайт
Продолжительность : 1 ч. 42 м.
Общий поток : 12,6 Мбит/сек
Дата кодирования : UTC 2011-01-22 16:32:35
Программа кодирования : mkvmerge v4.4.0 ('Die Wiederkehr') built on Oct 31 2010 21:52:48
Библиотека кодирования : libebml v1.0.0 + libmatroska v1.0.0

Видео
Идентификатор : 1
Формат : AVC
Формат/Информация : Advanced Video Codec
Профиль формата : High@L4.1
Параметр CABAC формата : Да
Параметр ReFrames формата : 5 кадры
Режим смешивания : Header stripping
Идентификатор кодека : V_MPEG4/ISO/AVC
Продолжительность : 1 ч. 42 м.
Битрейт : 8910 Кбит/сек
Ширина : 1920 пикс.
Высота : 798 пикс.
Соотношение сторон : 2,40:1
Частота кадров : 23,976 кадр/сек
Цветовое пространство : YUV
Подвыборка цветности : 4:2:0
Битовая глубина : 8 бит
Тип развёртки : Прогрессивная
Бит/(Пиксели*Кадры) : 0.243
Размер потока : 6,22 Гбайт (69%)
Библиотека кодирования : x264 core 104 r1703 cd21d05
Настройки программы : cabac=1 / ref=5 / deblock=1:-3:-3 / analyse=0x3:0x113 / me=umh / subme=10 / psy=1 / psy_rd=1.00:0.00 / mixed_ref=1 / me_range=32 / chroma_me=1 / trellis=2 / 8x8dct=1 / cqm=0 / deadzone=21,11 / fast_pskip=0 / chroma_qp_offset=-2 / threads=6 / sliced_threads=0 / nr=0 / decimate=0 / interlaced=0 / constrained_intra=0 / bframes=10 / b_pyramid=2 / b_adapt=2 / b_bias=0 / direct=3 / weightb=1 / open_gop=0 / weightp=2 / keyint=250 / keyint_min=23 / scenecut=40 / intra_refresh=0 / rc=2pass / mbtree=0 / bitrate=8910 / ratetol=1.0 / qcomp=0.60 / qpmin=10 / qpmax=51 / qpstep=4 / cplxblur=20.0 / qblur=0.5 / ip_ratio=1.40 / pb_ratio=1.30 / aq=1:0.50
Язык : English

Аудио #1
Идентификатор : 2
Формат : AC-3
Формат/Информация : Audio Coding 3
Расширение режима : CM (complete main)
Режим смешивания : Header stripping
Идентификатор кодека : A_AC3
Продолжительность : 1 ч. 42 м.
Вид битрейта : Постоянный
Битрейт : 448 Кбит/сек
Канал(ы) : 6 канала(ов)
Расположение каналов : Front: L C R, Side: L R, LFE
Частота : 48,0 КГц
Битовая глубина : 16 бит
Метод сжатия : С потерями
Размер потока : 330 Мбайт (4%)
Заголовок : R5
Язык : Russian

Аудио #2
Идентификатор : 3
Формат : DTS
Формат/Информация : Digital Theater Systems
Режим смешивания : Header stripping
Идентификатор кодека : A_DTS
Продолжительность : 1 ч. 42 м.
Вид битрейта : Постоянный
Битрейт : 1510 Кбит/сек
Канал(ы) : 6 канала(ов)
Расположение каналов : Front: L C R, Side: L R, LFE
Частота : 48,0 КГц
Битовая глубина : 16 бит
Метод сжатия : С потерями
Размер потока : 1,09 Гбайт (12%)
Заголовок : AVO Serbin DTS 5.1 1536 kbps
Язык : Russian

Аудио #3
Идентификатор : 4
Формат : DTS
Формат/Информация : Digital Theater Systems
Режим смешивания : Header stripping
Идентификатор кодека : A_DTS
Продолжительность : 1 ч. 42 м.
Вид битрейта : Постоянный
Битрейт : 1510 Кбит/сек
Канал(ы) : 6 канала(ов)
Расположение каналов : Front: L C R, Side: L R, LFE
Частота : 48,0 КГц
Битовая глубина : 16 бит
Метод сжатия : С потерями
Размер потока : 1,09 Гбайт (12%)
Язык : English

Аудио #4
Идентификатор : 5
Формат : AC-3
Формат/Информация : Audio Coding 3
Расширение режима : CM (complete main)
Режим смешивания : Header stripping
Идентификатор кодека : A_AC3
Продолжительность : 1 ч. 42 м.
Вид битрейта : Постоянный
Битрейт : 192 Кбит/сек
Канал(ы) : 2 канала(ов)
Расположение каналов : Front: L R
Частота : 48,0 КГц
Битовая глубина : 16 бит
Метод сжатия : С потерями
Размер потока : 141 Мбайт (2%)
Заголовок : Commentary by Director Agnieszka Wojtowicz-Vosloo AC3 2.0 192 kbps
Язык : English

Текст #1
Идентификатор : 6
Формат : UTF-8
Идентификатор кодека : S_TEXT/UTF8
Идентификатор кодека/Информация : UTF-8 Plain Text
Заголовок : Serbin
Язык : Russian

Текст #2
Идентификатор : 7
Формат : UTF-8
Идентификатор кодека : S_TEXT/UTF8
Идентификатор кодека/Информация : UTF-8 Plain Text
Заголовок : Romanian
Язык : Romanian

Текст #3
Идентификатор : 8
Формат : UTF-8
Идентификатор кодека : S_TEXT/UTF8
Идентификатор кодека/Информация : UTF-8 Plain Text
Язык : English

Меню
00:00:00.000 : en:1. Somewhere Else
00:03:59.114 : en:2. Final Respects
00:10:38.805 : en:3. Misunderstanding
00:14:13.978 : en:4. Massive Internal Trauma
00:20:48.038 : en:5. Devastating News
00:30:44.634 : en:6. "The Dead Can't Harm the Dead"
00:41:26.901 : en:7. Feels More Like Hell
00:47:25.342 : en:8. "You Will Never Live Again"
00:59:30.859 : en:9. Ghostly Vision
01:05:01.231 : en:10. Nothing to Say
01:11:23.362 : en:11. "You Can't Help Her Anymore"
01:17:07.456 : en:12. Too Scared to Love
01:24:21.265 : en:13. The Funeral
01:29:47.674 : en:14. Premature Burial
01:34:39.382 : en:15. The Night Anna Came Out of the Grave
01:37:14.787 : en:16. End Credits
Свернуть

Скриншоты
Изображение

Изображение

Изображение

Изображение
Свернуть


Изображение
Не в сети
Профиль  
 Добавлено: 2011-01-25 02:05 (спустя 6 часов)
Аватара пользователя
Стаж: 8 лет 3 месяца
Возраст: 43
Сообщений: 3290
Спасибок: 21012
Лайков: 3
кино должно быть интересное :)
_________________
Изображение
Не в сети
Профиль  
 Добавлено: 2011-01-25 05:24 (спустя 3 часа)
Аватара пользователя
Стаж: 6 лет
Возраст: 26
Сообщений: 113
Спасибок: 691
неплохой фильм, всем советую :)
Не в сети
Профиль  
 Добавлено: 2011-01-26 14:30 (спустя 1 день 9 часов)
Аватара пользователя
Стаж: 7 лет 2 месяца
Возраст: 54
Сообщений: 20
Да,весьма,весьма не плохой!Спасибо большое OxOTHuK52 за раздачу!
Не в сети
Профиль  
 Добавлено: 2011-01-30 19:59 (спустя 4 дня)
Top-seeder
Аватара пользователя
Стаж: 7 лет 6 месяцев
Возраст: 24
Сообщений: 165
Спасибок: 294
Лайков: 1
как озвучка?
_________________
Изображение
Изображение
Изображение
Не в сети
Профиль  
 Добавлено: 2011-01-31 05:02 (спустя 9 часов)
Аватара пользователя
Стаж: 6 лет
Возраст: 26
Сообщений: 113
Спасибок: 691
Дубляж :)
Не в сети
Профиль  
 Добавлено: 2011-01-31 13:58 (спустя 8 часов)
Top-seeder
Аватара пользователя
Стаж: 7 лет 6 месяцев
Возраст: 24
Сообщений: 165
Спасибок: 294
Лайков: 1
спасибо, читать умею) по качеству норм? слушать то можно?
_________________
Изображение
Изображение
Изображение
Не в сети
Профиль  
 Добавлено: 2011-01-31 15:21 (спустя 1 час 23 минуты)
Аватара пользователя
Стаж: 6 лет
Возраст: 26
Сообщений: 113
Спасибок: 691
качество супер, не пожалеешь :)
Не в сети
Профиль  
 Добавлено: 2011-02-05 19:28 (спустя 5 дней)
Аватара пользователя
Стаж: 7 лет 11 месяцев
Сообщений: 786
Спасибок: 25
Лайков: 9
Жалко что на Двухслойный двд не уместится ,Я бы фильмец сибе в коллекцию катанул бы , ну хоть посмотрю ... :par_don:
Не в сети
Профиль  
 Добавлено: 2011-02-10 14:23 (спустя 4 дня)
Стаж: 8 лет 1 месяц
Сообщений: 19
Спасибок: 2
Подстажите пожалуйста фильм скачал дорожда идет а видео не показывает??
Не в сети
Профиль  
 Добавлено: 2013-04-12 10:46 (спустя 2 года 2 месяца)
Стаж: 5 лет 11 месяцев
Сообщений: 19
раздайте плиз

Добавлено спустя 59 секунд:
не могу ни как докачать
Не в сети
Профиль  
Начать новую темуОтветить на тему  [ Сообщений: 11 ] 
Вы не можете начинать темы
Вы не можете отвечать на сообщения
Вы не можете редактировать свои сообщения
Вы не можете удалять свои сообщения