Правила форума

  • В этом разделе создание новых тем Запрещено.
  • Для создания новых тем пользуйтесь Корневым разделом DVD и HD фильмы.
Начать новую темуОтветить на тему  [ 1 сообщение ] 
Торрент файл
Размер: 11.62 GB • Зарегистрирован: 4 года 4 месяца • Статус: Проверено
Скачан: 102 раза • Желающих скачать: 0 • Поблагодарили: 13 раз
 Раздают: 0  |  0 KB/s  ]   Качают: 0  |  0 KB/s  ] 
 Полного источника не было 8 месяцев 
Сообщения
 Добавлено: 2012-07-13 08:16
Руководитель релиз-группы
Аватара пользователя
Стаж: 7 лет 5 месяцев
Возраст: 31
Сообщений: 3406
Спасибок: 46729
Лайков: 5
Изображение

Жутко громко и запредельно близко
Extremely Loud & Incredibly Close


Год выпуска: 2011
Страна: США
Жанр: драма, детектив, приключения
Продолжительность: 02:09:29
Перевод: Профессиональный (многоголосый, закадровый) [лицензия]
Режиссер: Стивен Долдри
Сценарий: Эрик Рот, Джонатан Сафран Фоер
Продюсер: Скотт Рудин, Эли Буш, Селия Д. Костас
Оператор: Крис Менгис
Композитор: Александр Деспла
В ролях: Том Хэнкс, Сандра Баллок, Томас Хорн, Макс фон Сюдов, Виола Дэвис, Джон Гудмен, Джеффри Райт, Зои Колдуэлл, Дэннис Хирн, Пол Клементовиц, Джулиан Теппер, Калеб Рейнольдс, Стефен Хендерсон, Лорна Прюс, Хазелль Гудман, Бернадетт Дрейтон, Дэвид Лэтэм, Марти Крживонос, Джим Нортон, Кармен М. Херлихи, Хлоя Роу, Дайан Чэн, Адриан Мартинез, Марко Верна, Брэндон Джефферс, Брук Блум, Рене Ойеда, Мэдисон Арнольд, Уильям Юманс, Кит , Флэнеган, Эрика Хелен Смит, Рэй Яничелли, Бенжамин МакКрекен, Малачи Вейр, Джон Джозеф Галлахер
Сборы в мире: $47 847 881
Описание: Десятилетний Оскар теряет отца в день атаки на башни-близнецы в Нью-Йорке. По всему городу Оскар ищет информацию, которая должна привести его к разрешению загадки отца. На пути мальчику встретятся разные люди, но их всех объединяет страшная катастрофа, поэтому каждый пытается справиться с собственным горем.
Изображение
MPAA: Изображение
Релиз: Изображение Раздача группы: Изображение
Качество: BDRip, 1080p
Формат: Matroska
Видео: AVC; 1920x800 (2.40:1); 10439 Kbps; 23,976 fps; 0,283 bit/pixel
Аудио №1: AC3; 640 Kbps; CBR; 6 ch Russian
Аудио №2: DTS; 1509 Kbps; CBR; 6 ch; 24 bit English
Субтитры: русские, английские
Изображение
mediainfo
Формат : Matroska
Версия формата : Version 2
Размер файла : 11,6 Гбайт
Продолжительность : 2 ч. 9 м.
Общий поток : 12,8 Мбит/сек
Название фильма : IRONCLUB
Дата кодирования : UTC 2012-07-11 06:39:42
Программа кодирования : mkvmerge v4.9.1 ('Ich will') built on Jul 11 2011 23:53:15
Библиотека кодирования : libebml v1.2.1 + libmatroska v1.1.1

Видео
Идентификатор : 1
Формат : AVC
Формат/Информация : Advanced Video Codec
Профиль формата : High@L4.1
Параметр CABAC формата : Да
Параметр ReFrames формата : 5 кадров
Идентификатор кодека : V_MPEG4/ISO/AVC
Продолжительность : 2 ч. 9 м.
Битрейт : 10,7 Мбит/сек
Ширина : 1920 пикселей
Высота : 800 пикселей
Соотношение сторон : 2,40:1
Частота кадров : 23,976 кадра/сек
Цветовое пространство : YUV
Субдискретизация насыщенности : 4:2:0
Битовая глубина : 8 бит
Тип развёртки : Прогрессивная
Бит/(Пиксели*Кадры) : 0.291
Размер потока : 9,44 Гбайт (81%)
Заголовок : Extremely.Loud&Incredibly.Close.2011.1080p.BluRay.DTS.x264-CtrlHD
Библиотека кодирования : x264 core 122 r2184 5c85e0a
Настройки программы : cabac=1 / ref=5 / deblock=1:-3:-3 / analyse=0x3:0x113 / me=tesa / subme=11 / psy=1 / psy_rd=1.10:0.00 / mixed_ref=1 / me_range=16 / chroma_me=1 / trellis=2 / 8x8dct=1 / cqm=0 / deadzone=21,11 / fast_pskip=0 / chroma_qp_offset=-2 / threads=6 / sliced_threads=0 / nr=0 / decimate=0 / interlaced=0 / bluray_compat=0 / constrained_intra=0 / bframes=7 / b_pyramid=2 / b_adapt=2 / b_bias=0 / direct=3 / weightb=1 / open_gop=0 / weightp=2 / keyint=250 / keyint_min=23 / scenecut=40 / intra_refresh=0 / rc=2pass / mbtree=0 / bitrate=10700 / ratetol=1.0 / qcomp=0.60 / qpmin=0 / qpmax=69 / qpstep=4 / cplxblur=20.0 / qblur=0.5 / ip_ratio=1.40 / pb_ratio=1.30 / aq=1:0.70
Язык : English

Аудио #1
Идентификатор : 2
Формат : AC-3
Формат/Информация : Audio Coding 3
Расширение режима : CM (complete main)
Идентификатор кодека : A_AC3
Продолжительность : 2 ч. 9 м.
Вид битрейта : Постоянный
Битрейт : 640 Кбит/сек
Каналы : 6 каналов
Расположение каналов : Front: L C R, Side: L R, LFE
Частота : 48,0 КГц
Битовая глубина : 16 бит
Метод сжатия : С потерями
Размер потока : 593 Мбайт (5%)
Заголовок : DD 5.1 @ 640 kbps - MVO
Язык : Russian

Аудио #2
Идентификатор : 3
Формат : DTS
Формат/Информация : Digital Theater Systems
Идентификатор кодека : A_DTS
Продолжительность : 2 ч. 9 м.
Вид битрейта : Постоянный
Битрейт : 1510 Кбит/сек
Каналы : 6 каналов
Расположение каналов : Front: L C R, Side: L R, LFE
Частота : 48,0 КГц
Битовая глубина : 24 бит
Метод сжатия : С потерями
Размер потока : 1,37 Гбайт (12%)
Заголовок : DTS 5.1 @ 1536 kbps
Язык : English

Текст #1
Идентификатор : 4
Формат : UTF-8
Идентификатор кодека : S_TEXT/UTF8
Идентификатор кодека/Информация : UTF-8 Plain Text
Заголовок : Full
Язык : Russian

Текст #2
Идентификатор : 5
Формат : UTF-8
Идентификатор кодека : S_TEXT/UTF8
Идентификатор кодека/Информация : UTF-8 Plain Text
Язык : Russian

Текст #3
Идентификатор : 6
Формат : UTF-8
Идентификатор кодека : S_TEXT/UTF8
Идентификатор кодека/Информация : UTF-8 Plain Text
Заголовок : Forced
Язык : Russian

Текст #4
Идентификатор : 7
Формат : UTF-8
Идентификатор кодека : S_TEXT/UTF8
Идентификатор кодека/Информация : UTF-8 Plain Text
Язык : English

Меню
00:00:00.000 : en:00:00:00.000
00:09:45.168 : en:00:09:45.168
00:19:20.868 : en:00:19:20.868
00:30:38.420 : en:00:30:38.420
00:40:29.761 : en:00:40:29.761
00:50:47.670 : en:00:50:47.670
01:02:01.676 : en:01:02:01.676
01:10:17.672 : en:01:10:17.672
01:20:05.676 : en:01:20:05.676
01:30:13.950 : en:01:30:13.950
01:38:48.256 : en:01:38:48.256
01:49:26.310 : en:01:49:26.310
02:00:31.683 : en:02:00:31.683
02:02:19.958 : en:02:02:19.958
Свернуть
"Знаете ли Вы, что..."
  • В основу фильма был положен одноимённый роман американского писателя Джонатана Сафрана Фоера.
Свернуть
Скриншоты

Изображение
Изображение
Изображение
Свернуть
Не в сети
Профиль  
Начать новую темуОтветить на тему  [ 1 сообщение ] 
Вы не можете начинать темы
Вы не можете отвечать на сообщения
Вы не можете редактировать свои сообщения
Вы не можете удалять свои сообщения